<?xml version="1.0" standalone="no"?>
<!DOCTYPE svg PUBLIC "-//W3C//DTD SVG 1.1//EN" "http://www.w3.org/Graphics/SVG/1.1/DTD/svg11.dtd" >
<svg xmlns="http://www.w3.org/2000/svg" xmlns:xlink="http://www.w3.org/1999/xlink" version="1.1">
<metadata>
Created by FontForge 20201107 at Mon Jan 22 14:30:55 2024
 By 
Copyright 2011 The Roboto Project Authors (https://github.com/googlefonts/roboto-classic)
</metadata>
<defs>
<font id="Roboto-Regular" horiz-adv-x="751" >
  <font-face 
    font-family="Roboto"
    font-weight="400"
    font-stretch="normal"
    units-per-em="2048"
    panose-1="2 0 0 0 0 0 0 0 0 0"
    ascent="1536"
    descent="-512"
    x-height="1082"
    cap-height="1456"
    bbox="-1510 -555 2353 2163"
    underline-thickness="100"
    underline-position="-200"
    unicode-range="U+0002-FFFD"
  />
<missing-glyph horiz-adv-x="908" 
d="M777 1456v-54h-650v54h650zM154 1456v-1456h-54v1456h54zM808 1456v-1456h-54v1456h54zM777 54v-54h-650v54h650zM777 1426l-593 -1396h-58l593 1396h58zM719 30l-593 1396h58l593 -1396h-58z" />
    <glyph glyph-name="uniFB01" unicode="fi" horiz-adv-x="1135" 
d="M388 0h-185v1176q0 123 48 208t137 129t211 44q72 0 141 -17.5t142 -43.5l-31 -156q-46 18 -106.5 34.5t-132.5 16.5q-119 0 -171.5 -53.5t-52.5 -161.5v-1176zM609 1082v-142h-577v142h577zM973 1082v-1082h-185v1082h185z" />
    <glyph glyph-name="uniFB02" unicode="fl" horiz-adv-x="1163" 
d="M417 0h-185v1196q0 117 43.5 197.5t126 122t200.5 41.5q44 0 110.5 -9t142 -23t147.5 -29l-86 -134q-95 18 -171 27.5t-129 9.5q-65 0 -109.5 -23.5t-67 -68.5t-22.5 -111v-1196zM817 0v1496h185v-1496h-185zM647 1082v-142h-586v142h586z" />
    <glyph glyph-name="uniFB03" unicode="ffi" horiz-adv-x="1748" 
d="M417 0h-185v1196q0 117 42.5 197.5t122.5 122t190 41.5q32 0 64.5 -4t63.5 -12l-10 -151q-21 5 -47.5 7t-52.5 2q-59 0 -101.5 -23.5t-64.5 -68.5t-22 -111v-1196zM657 1082v-142h-596v142h596zM1002 0h-185v1176q0 123 47.5 208t136.5 129t211 44q73 0 142 -17.5
t142 -43.5l-32 -156q-45 18 -106 34.5t-132 16.5q-119 0 -171.5 -53.5t-52.5 -161.5v-1176zM1223 1082v-142h-577v142h577zM1587 1082v-1082h-185v1082h185z" />
    <glyph glyph-name="uniFB04" unicode="ffl" horiz-adv-x="1748" 
d="M417 0h-185v1196q0 117 42.5 197.5t122.5 122t190 41.5q32 0 64.5 -4t63.5 -12l-10 -151q-21 5 -47.5 7t-52.5 2q-59 0 -101.5 -23.5t-64.5 -68.5t-22 -111v-1196zM658 1082v-142h-597v142h597zM1002 0h-185v1196q0 117 43.5 197.5t126 122t200.5 41.5q44 0 110.5 -9
t142 -23t147.5 -29l-86 -134q-95 18 -171 27.5t-129 9.5q-65 0 -109.5 -23.5t-67 -68.5t-22.5 -111v-1196zM1402 0v1496h185v-1496h-185zM1232 1082v-142h-586v142h586z" />
    <glyph glyph-name=".notdef" horiz-adv-x="908" 
d="M777 1456v-54h-650v54h650zM154 1456v-1456h-54v1456h54zM808 1456v-1456h-54v1456h54zM777 54v-54h-650v54h650zM777 1426l-593 -1396h-58l593 1396h58zM719 30l-593 1396h58l593 -1396h-58z" />
    <glyph glyph-name="glyph1" horiz-adv-x="0" 
 />
    <glyph glyph-name="glyph1" horiz-adv-x="0" 
 />
    <glyph glyph-name="uni000D" unicode="&#xd;" horiz-adv-x="508" 
 />
    <glyph glyph-name="uni0002" horiz-adv-x="0" 
 />
    <glyph glyph-name="space" unicode=" " horiz-adv-x="508" 
 />
    <glyph glyph-name="exclam" unicode="!" horiz-adv-x="528" 
d="M361 1456l-13 -1045h-167l-14 1045h194zM161 93q0 45 27.5 76t81.5 31q53 0 81.5 -31t28.5 -76q0 -43 -28.5 -74t-81.5 -31q-54 0 -81.5 31t-27.5 74z" />
    <glyph glyph-name="quotedbl" unicode="&#x22;" horiz-adv-x="656" 
d="M278 1536v-136l-30 -357h-111v348v145h141zM548 1536v-136l-30 -357h-111v355v138h141z" />
    <glyph glyph-name="numbersign" unicode="#" horiz-adv-x="1261" 
d="M279 0l283 1456h144l-284 -1456h-143zM686 0l284 1456h143l-284 -1456h-143zM1235 901h-1040v139h1040v-139zM1160 410h-1041v138h1041v-138z" />
    <glyph glyph-name="dollar" unicode="$" horiz-adv-x="1151" 
d="M674 1692v-305h-150v305h150zM656 59v-267h-149v267h149zM856 375q0 60 -27 108t-89 88t-166 74q-126 39 -217.5 95t-141 139t-49.5 201q0 123 53 212t150 137t228 48q102 0 182 -30.5t135.5 -90.5t85 -147t29.5 -201h-184q0 67 -16 123t-48 97.5t-78 64t-106 22.5
q-84 0 -138.5 -29t-80.5 -81.5t-26 -121.5q0 -64 26 -112t88.5 -86.5t172.5 -75.5q129 -41 219 -96.5t137 -136t47 -199.5q0 -129 -58 -217.5t-163 -134.5t-246 -46q-85 0 -168 23t-150 75.5t-107 139t-40 212.5h186q0 -85 24.5 -140.5t65.5 -88t90.5 -46t98.5 -13.5
q90 0 152.5 28.5t95.5 81.5t33 124z" />
    <glyph glyph-name="percent" unicode="%" horiz-adv-x="1500" 
d="M105 1099v77q0 83 36 151t103 109t159 41q94 0 160.5 -41t102.5 -109t36 -151v-77q0 -81 -35.5 -149t-102 -109t-159.5 -41t-160.5 41t-103.5 109t-36 149zM244 1176v-77q0 -46 17.5 -87t53.5 -66.5t90 -25.5t89 25.5t52 66.5t17 87v77q0 47 -17.5 88.5t-53 67
t-89.5 25.5q-53 0 -88.5 -25.5t-53 -67t-17.5 -88.5zM814 279v78q0 82 36 150t103 109t159 41q94 0 160.5 -41t102.5 -109t36 -150v-78q0 -82 -35.5 -150t-102 -109t-159.5 -41t-160 41t-103.5 109t-36.5 150zM953 357v-78q0 -46 17.5 -87.5t53.5 -67t90 -25.5t89.5 25.5
t52.5 66.5t17 88v78q0 47 -17.5 88t-53 66.5t-90.5 25.5q-53 0 -88.5 -25.5t-53 -66.5t-17.5 -88zM1158 1249l-711 -1138l-104 66l711 1138z" />
    <glyph glyph-name="ampersand" unicode="&#x26;" horiz-adv-x="1274" 
d="M410 808l218 155q63 43 97.5 86.5t34.5 119.5q0 59 -46 107.5t-130 48.5q-58 0 -98 -27t-60 -71.5t-20 -97.5q0 -45 22 -93t61 -100t89 -110l689 -826h-222l-565 676q-75 88 -134 161.5t-92.5 142.5t-33.5 143q0 114 45.5 192.5t127.5 119.5t192 41q107 0 184.5 -42.5
t119.5 -112t42 -152.5q0 -70 -25 -125.5t-69.5 -101.5t-103.5 -90l-289 -215q-72 -53 -105 -101t-42.5 -85t-9.5 -59q0 -71 31 -130t94.5 -94.5t159.5 -35.5q84 0 163.5 38.5t142.5 110t100.5 171t37.5 220.5h166q0 -99 -19 -187t-58.5 -163.5t-100.5 -137.5q-9 -9 -14 -21
t-14 -21q-75 -81 -184.5 -121.5t-219.5 -40.5q-145 0 -250.5 53t-162.5 146t-57 213q0 92 39.5 162t109 131t159.5 123z" />
    <glyph glyph-name="quotesingle" unicode="'" horiz-adv-x="358" 
d="M254 1536v-110l-21 -368h-129l1 351v127h149z" />
    <glyph glyph-name="parenleft" unicode="(" horiz-adv-x="701" 
d="M134 582v10q0 218 49 394.5t125 309.5t160 220.5t155 126.5l39 -122q-59 -45 -119.5 -124t-111 -194t-81.5 -267t-31 -342v-14q0 -190 31 -342.5t81.5 -268.5t111 -197.5t119.5 -129.5l-39 -112q-71 39 -155 126.5t-160 220t-125 309.5t-49 396z" />
    <glyph glyph-name="parenright" unicode=")" horiz-adv-x="713" 
d="M567 592v-10q0 -219 -49 -396t-125 -309.5t-160 -220t-155 -126.5l-39 112q59 45 119 125.5t111 198t82 271t31 343.5v14q0 190 -33 343.5t-85.5 270.5t-112 197.5t-112.5 124.5l39 113q71 -39 155 -126.5t160 -220.5t125 -309.5t49 -394.5z" />
    <glyph glyph-name="asterisk" unicode="*" horiz-adv-x="882" 
d="M129 708l201 276l-302 90l47 150l302 -111l-9 344h152l-10 -350l298 111l46 -153l-307 -91l197 -271l-124 -93l-185 288l-181 -281z" />
    <glyph glyph-name="plus" unicode="+" horiz-adv-x="1162" 
d="M1076 781v-174h-998v174h998zM670 1206v-1060h-185v1060h185z" />
    <glyph glyph-name="comma" unicode="," horiz-adv-x="403" 
d="M309 220v-149q0 -91 -46 -192.5t-129 -169.5l-105 73q32 44 54 89.5t33.5 94t11.5 102.5v152h181z" />
    <glyph glyph-name="hyphen" unicode="-" horiz-adv-x="566" 
d="M526 695v-152h-488v152h488z" />
    <glyph glyph-name="period" unicode="." horiz-adv-x="540" 
d="M144 98q0 47 29.5 79.5t85.5 32.5t85.5 -32.5t29.5 -79.5q0 -46 -29.5 -78t-85.5 -32t-85.5 32t-29.5 78z" />
    <glyph glyph-name="slash" unicode="/" horiz-adv-x="845" 
d="M785 1456l-607 -1581h-159l608 1581h158z" />
    <glyph glyph-name="zero" unicode="0" horiz-adv-x="1151" 
d="M1035 844v-222q0 -179 -32 -302t-92 -198t-144.5 -108.5t-190.5 -33.5q-84 0 -155 21t-127.5 67.5t-96.5 121.5t-61 182t-21 250v222q0 179 32.5 300t92.5 194.5t144.5 105.5t189.5 32q85 0 156.5 -20.5t127.5 -65t95.5 -118t60.5 -179.5t21 -249zM849 592v283
q0 98 -11.5 172.5t-33.5 127.5t-55.5 86t-77 48.5t-97.5 15.5q-66 0 -117 -24.5t-85.5 -77.5t-52.5 -139t-18 -209v-283q0 -98 11.5 -173t34.5 -129.5t56 -89.5t76.5 -51.5t96.5 -16.5q68 0 119 26t85.5 81.5t51.5 143t17 209.5z" />
    <glyph glyph-name="one" unicode="1" horiz-adv-x="1151" 
d="M729 1464v-1464h-185v1233l-373 -136v167l529 200h29z" />
    <glyph glyph-name="two" unicode="2" horiz-adv-x="1151" 
d="M1075 152v-152h-953v133l477 531q88 98 136.5 166.5t68 123t19.5 111.5q0 72 -29.5 130.5t-86.5 93.5t-138 35q-97 0 -161.5 -37.5t-96.5 -104.5t-32 -154h-185q0 123 54 225t160 162.5t261 60.5q138 0 236 -48.5t150.5 -136t52.5 -204.5q0 -64 -21.5 -129.5t-59 -130.5
t-87 -128t-105.5 -124l-390 -423h730z" />
    <glyph glyph-name="three" unicode="3" horiz-adv-x="1151" 
d="M391 819h132q97 0 160.5 32.5t95 89t31.5 127.5q0 84 -28 141t-84 86t-142 29q-78 0 -137.5 -30.5t-93 -86.5t-33.5 -132h-185q0 111 56 202t157.5 145t235.5 54q132 0 231 -46.5t154 -138t55 -227.5q0 -55 -25.5 -117.5t-79 -116.5t-138.5 -88.5t-204 -34.5h-158v112z
M391 667v111h158q139 0 230 -33t143.5 -88t74 -120.5t21.5 -130.5q0 -102 -34.5 -181t-97 -134t-146.5 -83t-183 -28q-95 0 -178.5 27t-147.5 78.5t-100 127t-36 172.5h185q0 -76 33.5 -133t96 -88.5t147.5 -31.5t146.5 29.5t95 89.5t33.5 151t-38 149.5t-107.5 87
t-163.5 28.5h-132z" />
    <glyph glyph-name="four" unicode="4" horiz-adv-x="1151" 
d="M1105 490v-152h-1052v109l652 1009h151l-162 -292l-431 -674h842zM902 1456v-1456h-185v1456h185z" />
    <glyph glyph-name="five" unicode="5" horiz-adv-x="1151" 
d="M355 693l-148 38l73 725h747v-171h-590l-44 -396q40 23 101.5 43t141.5 20q101 0 181 -34.5t136.5 -98.5t86.5 -154t30 -201q0 -105 -28.5 -193t-85.5 -153.5t-143.5 -101.5t-203.5 -36q-88 0 -166.5 24.5t-140 75t-100 126t-48.5 177.5h176q12 -82 48 -138t94.5 -84.5
t136.5 -28.5q66 0 117 23t86 66t53.5 104t18.5 137q0 69 -19 128t-56.5 103t-91.5 68.5t-124 24.5q-93 0 -140.5 -25t-97.5 -68z" />
    <glyph glyph-name="six" unicode="6" horiz-adv-x="1151" 
d="M831 1458h16v-157h-16q-147 0 -246 -47.5t-157 -127t-83.5 -178.5t-25.5 -201v-214q0 -97 23 -171.5t63 -125.5t90.5 -77t105.5 -26q64 0 114 24.5t84.5 69t52.5 105.5t18 134q0 65 -16 125.5t-49 108t-82.5 75t-117.5 27.5q-77 0 -143.5 -37.5t-109 -98t-48.5 -131.5
l-98 1q14 112 52.5 191.5t96 130t129 74t151.5 23.5q109 0 188 -41t130 -109.5t75.5 -154t24.5 -175.5q0 -103 -29 -193t-86.5 -158t-141.5 -106t-195 -38q-118 0 -206 48.5t-146 129.5t-87 180t-29 201v87q0 154 31 302t107.5 268t212.5 191t347 71z" />
    <glyph glyph-name="seven" unicode="7" horiz-adv-x="1151" 
d="M1062 1456v-104l-603 -1352h-195l602 1304h-788v152h984z" />
    <glyph glyph-name="eight" unicode="8" horiz-adv-x="1151" 
d="M1039 394q0 -133 -61.5 -225.5t-166 -140.5t-235.5 -48t-236 48t-166 140.5t-61 225.5q0 87 33.5 159.5t95 126.5t146 83.5t186.5 29.5q134 0 239 -51.5t165.5 -141.5t60.5 -206zM853 398q0 81 -35 143.5t-98 97.5t-146 35q-85 0 -146.5 -35t-95.5 -97.5t-34 -143.5
q0 -84 33.5 -143.5t96 -91t148.5 -31.5t148 31.5t95.5 91t33.5 143.5zM1005 1077q0 -106 -56 -191t-153 -134t-220 -49q-125 0 -222.5 49t-152.5 134t-55 191q0 127 55.5 216t152.5 136t221 47q125 0 222 -47t152.5 -136t55.5 -216zM820 1074q0 73 -31 129t-86 88.5
t-128 32.5t-127.5 -30.5t-85 -86.5t-30.5 -133q0 -75 30.5 -131t85.5 -87t128 -31t127.5 31t85.5 87t31 131z" />
    <glyph glyph-name="nine" unicode="9" horiz-adv-x="1151" 
d="M305 155h19q160 0 260 45t154 121t74 171.5t20 196.5v223q0 99 -22.5 176t-62 129t-89.5 79t-106 27q-64 0 -114.5 -25.5t-85 -71.5t-52.5 -108t-18 -135q0 -65 16 -126t49 -110t82.5 -77.5t116.5 -28.5q62 0 116.5 24.5t97 67t68 96.5t29.5 113h88q0 -83 -32.5 -163.5
t-90.5 -146.5t-136 -105.5t-170 -39.5q-108 0 -187 42t-129.5 112t-75 156.5t-24.5 175.5q0 104 29 195t86 160.5t141.5 108.5t195.5 39q125 0 213 -50t143.5 -134t81.5 -189t26 -216v-67q0 -113 -14.5 -229.5t-55 -222.5t-117.5 -189.5t-200.5 -132t-304.5 -48.5h-19v157z
" />
    <glyph glyph-name="colon" unicode=":" horiz-adv-x="496" 
d="M133 98q0 47 29.5 79.5t85.5 32.5t85.5 -32.5t29.5 -79.5q0 -46 -29.5 -78t-85.5 -32t-85.5 32t-29.5 78zM134 981q0 47 29.5 79.5t85.5 32.5t85.5 -32.5t29.5 -79.5q0 -46 -29.5 -78t-85.5 -32t-85.5 32t-29.5 78z" />
    <glyph glyph-name="semicolon" unicode=";" horiz-adv-x="433" 
d="M110 981q0 47 29.5 79.5t85.5 32.5t85.5 -32.5t29.5 -79.5q0 -46 -29.5 -78t-85.5 -32t-85.5 32t-29.5 78zM321 220v-149q0 -91 -46 -192.5t-129 -169.5l-105 73q32 44 54 89.5t33.5 94t11.5 102.5v152h181z" />
    <glyph glyph-name="less" unicode="&#x3c;" horiz-adv-x="1041" 
d="M199 672l691 -280v-196l-818 379v115zM890 902l-690 -284l-128 -14v116l818 378v-196z" />
    <glyph glyph-name="equal" unicode="=" horiz-adv-x="1124" 
d="M986 975v-161h-834v161h834zM986 560v-161h-834v161h834z" />
    <glyph glyph-name="greater" unicode="&#x3e;" horiz-adv-x="1071" 
d="M846 632l-711 277v191l854 -378v-117zM135 388l713 283l141 21v-116l-854 -379v191z" />
    <glyph glyph-name="question" unicode="?" horiz-adv-x="968" 
d="M543 410h-186q1 96 17.5 157.5t54.5 112.5t101 116q46 47 84.5 88.5t62.5 90t24 116.5q0 69 -24.5 119t-72 77t-117.5 27q-58 0 -110 -21t-84 -64.5t-33 -113.5h-185q2 113 56.5 194t147.5 124t208 43q127 0 216.5 -46t136.5 -131.5t47 -202.5q0 -90 -36.5 -165.5
t-93.5 -141.5t-121 -126q-55 -51 -74 -115t-19 -138zM349 93q0 45 28 76t81 31q54 0 82 -31t28 -76q0 -43 -28 -74t-82 -31q-53 0 -81 31t-28 74z" />
    <glyph glyph-name="at" unicode="@" horiz-adv-x="1839" 
d="M1736 503q-4 -92 -28 -184.5t-72 -169.5t-124.5 -123.5t-184.5 -46.5q-69 0 -120.5 24.5t-84 70.5t-45 111t-4.5 145l51 554h147l-51 -554q-6 -73 3.5 -119t29.5 -70.5t45.5 -33.5t49.5 -9q60 0 107 31.5t79.5 87t50.5 129t22 157.5q7 149 -13.5 274t-69 222t-126.5 164
t-186 102t-247 35q-126 0 -232.5 -38.5t-191 -110.5t-145 -173t-95 -227.5t-40.5 -272.5q-7 -150 16 -275.5t74.5 -224t130.5 -167t183 -104t232 -35.5q88 0 178.5 21t151.5 57l38 -114q-70 -45 -174.5 -67t-197.5 -22q-152 0 -277.5 41.5t-222 121t-160.5 193t-94 258.5
t-23 317q7 164 49.5 309t116.5 263t176.5 203.5t231 131.5t279.5 46q154 0 279 -42t219.5 -121t156.5 -193t90.5 -258t21.5 -314zM709 418q-7 -70 0 -125t27 -93t52.5 -57.5t76.5 -19.5q29 0 61 14.5t63 45.5t58 81t45 120l66 -72q-23 -82 -59.5 -144t-81.5 -104
t-95.5 -63.5t-102.5 -21.5q-73 0 -128 31.5t-89 89.5t-47.5 138.5t-4.5 179.5q9 105 37 194t69.5 159t94 119t111.5 74.5t121 25.5q108 0 170 -31.5t118 -74.5l-85 -99q-29 28 -76 52t-111 24q-55 0 -103 -28t-86.5 -84t-64.5 -138.5t-36 -192.5z" />
    <glyph glyph-name="A" unicode="A" horiz-adv-x="1336" 
d="M708 1327l-482 -1327h-197l555 1456h127zM1112 0l-483 1327l-3 129h127l557 -1456h-198zM1087 539v-158h-818v158h818z" />
    <glyph glyph-name="B" unicode="B" horiz-adv-x="1276" 
d="M688 681h-369l-2 155h335q83 0 145 28t96.5 80.5t34.5 125.5q0 80 -30.5 130.5t-93 74t-158.5 23.5h-284v-1298h-193v1456h477q112 0 200 -22.5t149.5 -70t93.5 -120.5t32 -175q0 -90 -46 -162.5t-127.5 -118.5t-190.5 -59zM679 0h-436l109 157h327q92 0 156.5 32
t98.5 90.5t34 138.5q0 81 -29 140t-91 91t-160 32h-275l2 155h376l41 -56q105 -9 178 -59.5t111.5 -128.5t38.5 -172q0 -136 -59.5 -229.5t-167.5 -142t-254 -48.5z" />
    <glyph glyph-name="C" unicode="C" horiz-adv-x="1333" 
d="M1048 463h192q-15 -138 -79 -247t-181 -172.5t-292 -63.5q-128 0 -232.5 48t-179.5 136.5t-115.5 213t-40.5 277.5v145q0 153 40.5 277.5t117 213.5t184.5 137t243 48q165 0 279 -62t177.5 -171.5t78.5 -253.5h-192q-14 102 -52 175.5t-108 113.5t-183 40
q-97 0 -170.5 -37t-123 -105t-74.5 -163t-25 -211v-147q0 -107 22.5 -201t68.5 -165t117 -111.5t168 -40.5q123 0 196 39t110.5 112t53.5 175z" />
    <glyph glyph-name="D" unicode="D" horiz-adv-x="1344" 
d="M563 0h-304l2 157h302q156 0 260 65.5t156.5 184t52.5 277.5v89q0 125 -30 222.5t-88 165t-141.5 102.5t-191.5 35h-328v158h328q143 0 261 -47.5t203.5 -137t131.5 -216t46 -284.5v-87q0 -158 -46 -284.5t-132.5 -215.5t-208 -136.5t-273.5 -47.5zM362 1456v-1456h-193
v1456h193z" />
    <glyph glyph-name="E" unicode="E" horiz-adv-x="1164" 
d="M1094 157v-157h-771v157h771zM362 1456v-1456h-193v1456h193zM992 830v-157h-669v157h669zM1084 1456v-158h-761v158h761z" />
    <glyph glyph-name="F" unicode="F" horiz-adv-x="1132" 
d="M362 1456v-1456h-193v1456h193zM972 801v-158h-652v158h652zM1071 1456v-158h-751v158h751z" />
    <glyph glyph-name="G" unicode="G" horiz-adv-x="1395" 
d="M1245 725v-533q-27 -40 -86 -89.5t-162.5 -86t-266.5 -36.5q-133 0 -244.5 46.5t-193 136t-126 218t-44.5 291.5v113q0 163 38.5 291t113.5 217.5t184 136t250 46.5q167 0 279.5 -57.5t176 -158.5t81.5 -230h-193q-13 79 -51.5 144t-109.5 104.5t-183 39.5
q-101 0 -175 -37t-122 -106t-71.5 -167t-23.5 -221v-115q0 -126 29.5 -225t84.5 -168.5t131.5 -105.5t169.5 -36q103 0 167 17.5t100 42t55 46.5v326h-337v156h529z" />
    <glyph glyph-name="H" unicode="H" horiz-adv-x="1461" 
d="M1120 830v-157h-788v157h788zM362 1456v-1456h-193v1456h193zM1288 1456v-1456h-192v1456h192z" />
    <glyph glyph-name="I" unicode="I" horiz-adv-x="557" 
d="M376 1456v-1456h-193v1456h193z" />
    <glyph glyph-name="J" unicode="J" horiz-adv-x="1130" 
d="M780 425v1031h192v-1031q0 -144 -59 -243t-162.5 -150.5t-237.5 -51.5t-238 46t-163 140t-59 237h193q0 -92 34 -151t94.5 -87t138.5 -28q76 0 136.5 32.5t95.5 97t35 158.5z" />
    <glyph glyph-name="K" unicode="K" horiz-adv-x="1285" 
d="M362 1456v-1456h-193v1456h193zM1241 1456l-605 -679l-340 -353l-32 206l256 282l489 544h232zM1055 0l-539 710l115 153l654 -863h-230z" />
    <glyph glyph-name="L" unicode="L" horiz-adv-x="1103" 
d="M1052 157v-157h-728v157h728zM362 1456v-1456h-193v1456h193z" />
    <glyph glyph-name="M" unicode="M" horiz-adv-x="1788" 
d="M230 1456h187l477 -1187l476 1187h188l-592 -1456h-146zM169 1456h165l27 -888v-568h-192v1456zM1453 1456h165v-1456h-192v568z" />
    <glyph glyph-name="N" unicode="N" horiz-adv-x="1461" 
d="M1289 1456v-1456h-194l-733 1123v-1123h-193v1456h193l736 -1126v1126h191z" />
    <glyph glyph-name="O" unicode="O" horiz-adv-x="1409" 
d="M1290 774v-92q0 -164 -41 -294t-118 -221t-184.5 -139t-240.5 -48q-129 0 -236.5 48t-186 139t-121.5 221t-43 294v92q0 164 42.5 293.5t120.5 221t185.5 139.5t236.5 48q133 0 240.5 -48t185 -139.5t119 -221t41.5 -293.5zM1099 682v94q0 130 -26.5 230t-77.5 168
t-124.5 103t-166.5 35q-90 0 -162.5 -35t-124 -103t-79.5 -168t-28 -230v-94q0 -131 28 -231.5t80.5 -169t125 -103.5t162.5 -35q94 0 167 35t123.5 103.5t76.5 169t26 231.5z" />
    <glyph glyph-name="P" unicode="P" horiz-adv-x="1292" 
d="M706 571h-389v157h389q113 0 183 36t102.5 100t32.5 146q0 75 -32.5 141t-102.5 106.5t-183 40.5h-344v-1298h-193v1456h537q165 0 279 -57t173 -157.5t59 -229.5q0 -140 -59 -239t-173 -150.5t-279 -51.5z" />
    <glyph glyph-name="Q" unicode="Q" horiz-adv-x="1409" 
d="M916 167l370 -293l-130 -120l-364 289zM1281 774v-92q0 -164 -41 -294t-118 -221t-184.5 -139t-240.5 -48q-129 0 -236.5 48t-186 139t-121.5 221t-43 294v92q0 164 42.5 293.5t120.5 221t185.5 139.5t236.5 48q133 0 241 -48t185 -139.5t118.5 -221t41.5 -293.5z
M1090 682v94q0 130 -26.5 230t-77.5 168t-124 103t-167 35q-89 0 -161.5 -35t-124.5 -103t-80 -168t-28 -230v-94q0 -131 28 -231.5t80.5 -169t125.5 -103.5t162 -35q94 0 167 35t123.5 103.5t76.5 169t26 231.5z" />
    <glyph glyph-name="R" unicode="R" horiz-adv-x="1262" 
d="M169 1456h482q164 0 277.5 -50t173 -147.5t59.5 -239.5q0 -100 -40.5 -182.5t-116 -140t-180.5 -85.5l-54 -21h-453l-2 157h342q104 0 173 36.5t104 98.5t35 137q0 84 -33 147t-103.5 97.5t-181.5 34.5h-289v-1298h-193v1456zM1020 0l-354 660l201 1l359 -649v-12h-206z
" />
    <glyph glyph-name="S" unicode="S" horiz-adv-x="1216" 
d="M945 368q0 51 -15.5 90.5t-54 71.5t-106 61t-170.5 59q-108 32 -195 71.5t-149 90.5t-95 117t-33 151t35 157t100.5 125.5t156.5 83.5t203 30q164 0 278.5 -62.5t174.5 -163t60 -214.5h-192q0 82 -35 145.5t-106 100t-180 36.5q-103 0 -170 -31t-99.5 -84t-32.5 -121
q0 -46 19.5 -83.5t61 -69.5t106 -59t154.5 -52q124 -35 214 -78t148.5 -96.5t87 -121t28.5 -152.5q0 -89 -36 -161t-103 -123t-160.5 -78.5t-208.5 -27.5q-101 0 -198.5 28t-177 84t-127 138.5t-47.5 191.5h192q0 -75 29 -128.5t79.5 -88.5t115 -51.5t134.5 -16.5
q101 0 171 28t106.5 80t36.5 123z" />
    <glyph glyph-name="T" unicode="T" horiz-adv-x="1222" 
d="M707 1456v-1456h-190v1456h190zM1175 1456v-158h-1125v158h1125z" />
    <glyph glyph-name="U" unicode="U" horiz-adv-x="1328" 
d="M1002 1456h192v-985q0 -164 -73 -273t-193.5 -163.5t-261.5 -54.5q-148 0 -267.5 54.5t-189 163.5t-69.5 273v985h191v-985q0 -114 42 -188t117.5 -110t175.5 -36q101 0 176.5 36t117.5 110t42 188v985z" />
    <glyph glyph-name="V" unicode="V" horiz-adv-x="1304" 
d="M639 221l429 1235h209l-539 -1456h-149zM238 1456l425 -1235l53 -221h-149l-538 1456h209z" />
    <glyph glyph-name="W" unicode="W" horiz-adv-x="1817" 
d="M552 440l289 1016h140l-81 -395l-311 -1061h-139zM253 1456l230 -996l69 -460h-138l-353 1456h192zM1355 461l225 995h193l-352 -1456h-138zM1002 1456l281 -1016l102 -440h-139l-300 1061l-82 395h138z" />
    <glyph glyph-name="X" unicode="X" horiz-adv-x="1284" 
d="M294 1456l350 -558l350 558h225l-460 -721l471 -735h-227l-359 569l-359 -569h-227l471 735l-460 721h225z" />
    <glyph glyph-name="Y" unicode="Y" horiz-adv-x="1230" 
d="M236 1456l378 -731l379 731h219l-502 -912v-544h-193v544l-502 912h221z" />
    <glyph glyph-name="Z" unicode="Z" horiz-adv-x="1227" 
d="M1146 157v-157h-986v157h986zM1114 1316l-908 -1316h-119v144l907 1312h120v-140zM1032 1456v-158h-932v158h932z" />
    <glyph glyph-name="bracketleft" unicode="[" horiz-adv-x="543" 
d="M523 1664v-152h-191v-1672h191v-152h-376v1976h376z" />
    <glyph glyph-name="backslash" unicode="\" horiz-adv-x="841" 
d="M649 -125l-608 1581h176l608 -1581h-176z" />
    <glyph glyph-name="bracketright" unicode="]" horiz-adv-x="543" 
d="M10 1512v152h378v-1976h-378v152h192v1672h-192z" />
    <glyph glyph-name="asciicircum" unicode="^" horiz-adv-x="856" 
d="M439 1242l-203 -513h-172l299 727h112zM617 729l-202 513l-37 214h113l298 -727h-172z" />
    <glyph glyph-name="underscore" unicode="_" horiz-adv-x="924" 
d="M921 0v-152h-917v152h917z" />
    <glyph glyph-name="grave" unicode="`" horiz-adv-x="633" 
d="M281 1536l193 -294h-159l-258 294h224z" />
    <glyph glyph-name="a" unicode="a" horiz-adv-x="1114" 
d="M779 185v557q0 64 -25.5 111.5t-76.5 73.5t-126 26q-70 0 -122.5 -24t-82 -63t-29.5 -84h-185q0 58 30 115t86.5 103.5t136 74t177.5 27.5q118 0 208.5 -40t142 -120.5t51.5 -201.5v-504q0 -54 9.5 -115t28.5 -105v-16h-193q-14 32 -22 85.5t-8 99.5zM811 656l2 -130
h-187q-79 0 -141 -12.5t-104 -37.5t-64 -62.5t-22 -87.5q0 -51 23 -93t69.5 -66.5t114.5 -24.5q85 0 150 36t103.5 88t41.5 101l79 -89q-7 -42 -38 -93t-82.5 -97.5t-122 -77t-158.5 -30.5q-110 0 -192.5 43t-128 115.5t-45.5 162.5q0 87 34 153.5t98 111t154 67.5t201 23
h215z" />
    <glyph glyph-name="b" unicode="b" horiz-adv-x="1150" 
d="M140 1536h186v-1326l-16 -210h-170v1536zM1057 550v-21q0 -118 -28 -218.5t-82 -174.5t-132 -115t-179 -41q-103 0 -180.5 35.5t-130.5 102.5t-84.5 162t-43.5 214v92q12 120 43.5 215t84.5 162.5t130 103t179 35.5t181 -39.5t132.5 -112.5t81.5 -174.5t28 -225.5z
M871 529v21q0 81 -15 152.5t-48 126t-87 86t-133 31.5q-70 0 -121.5 -24t-87.5 -64.5t-58.5 -92t-33.5 -106.5v-241q16 -70 52.5 -134.5t98 -105.5t152.5 -41q75 0 128.5 30.5t87 84.5t49.5 125t16 152z" />
    <glyph glyph-name="c" unicode="c" horiz-adv-x="1072" 
d="M574 132q66 0 122 27t92 74.5t41 108.5h176q-5 -96 -64.5 -178.5t-155.5 -133t-211 -50.5q-122 0 -212.5 43t-150 118t-89 172.5t-29.5 206.5v42q0 109 29.5 206.5t89 172.5t150 118t212.5 43q127 0 222 -51.5t149.5 -140t59.5 -200.5h-176q-5 67 -37.5 121t-88 86.5
t-129.5 32.5q-85 0 -142.5 -33.5t-91 -90t-48 -125t-14.5 -139.5v-42q0 -71 14 -140t47.5 -125t91 -89.5t143.5 -33.5z" />
    <glyph glyph-name="d" unicode="d" horiz-adv-x="1155" 
d="M823 210v1326h186v-1536h-170zM95 529v21q0 124 30.5 225.5t87 174.5t135 112.5t175.5 39.5q102 0 178.5 -35.5t130 -103t84.5 -162.5t43 -215v-92q-11 -119 -42.5 -214t-85 -162t-130.5 -102.5t-180 -35.5q-95 0 -173.5 41t-135 115t-87 174.5t-30.5 218.5zM281 550v-21
q0 -81 16.5 -152t51.5 -125t89 -84.5t129 -30.5q92 0 151.5 39t95.5 103t56 139v241q-12 55 -34.5 106.5t-58 92t-87 64.5t-121.5 24q-76 0 -130.5 -31.5t-89.5 -86t-51.5 -126t-16.5 -152.5z" />
    <glyph glyph-name="e" unicode="e" horiz-adv-x="1086" 
d="M590 -20q-113 0 -204.5 38.5t-157 108.5t-100.5 166t-35 210v42q0 132 39 235.5t106 175.5t152 109t176 37q116 0 200.5 -40t138.5 -111.5t80 -168t26 -210.5v-83h-808v151h623v14q-4 72 -29.5 140t-80.5 112t-150 44q-63 0 -116 -26.5t-91 -78.5t-59 -127t-21 -173v-42
q0 -77 21.5 -144.5t63 -118.5t101 -80t135.5 -29q98 0 166 40t119 107l112 -89q-35 -53 -89 -101t-132.5 -78t-185.5 -30z" />
    <glyph glyph-name="f" unicode="f" horiz-adv-x="712" 
d="M417 0h-185v1196q0 117 42.5 197.5t122.5 122t190 41.5q32 0 64.5 -4t63.5 -12l-10 -151q-21 5 -47.5 7t-52.5 2q-59 0 -101.5 -23.5t-64.5 -68.5t-22 -111v-1196zM647 1082v-142h-586v142h586z" />
    <glyph glyph-name="g" unicode="g" horiz-adv-x="1150" 
d="M842 1082h168v-1059q0 -143 -58 -244t-161.5 -153.5t-238.5 -52.5q-56 0 -131.5 17.5t-148 59t-121.5 111.5l97 110q68 -82 142.5 -114t147.5 -32q88 0 152 33t99.5 97.5t35.5 158.5v830zM97 529v21q0 124 29.5 225.5t85 174.5t134.5 112.5t178 39.5q102 0 178.5 -35.5
t130 -103t84.5 -162.5t43 -215v-92q-11 -119 -42.5 -214t-85 -162t-130.5 -102.5t-180 -35.5q-97 0 -175.5 41t-134.5 115t-85.5 174.5t-29.5 218.5zM282 550v-21q0 -81 16.5 -152t51 -125t88.5 -84.5t129 -30.5q92 0 152 39t95.5 103t55.5 139v241q-11 55 -33.5 106.5
t-58 92t-87.5 64.5t-122 24q-76 0 -130.5 -31.5t-89 -86t-51 -126t-16.5 -152.5z" />
    <glyph glyph-name="h" unicode="h" horiz-adv-x="1128" 
d="M326 1536v-1536h-185v1536h185zM282 582l-77 3q1 111 33 205.5t90 164.5t138.5 108.5t178.5 38.5q80 0 144 -21.5t109.5 -68.5t69.5 -121.5t24 -181.5v-709h-186v711q0 85 -25 136.5t-73 75t-118 23.5q-69 0 -125.5 -29t-97 -80t-63 -116.5t-22.5 -138.5z" />
    <glyph glyph-name="i" unicode="i" horiz-adv-x="498" 
d="M342 1082v-1082h-186v1082h186zM142 1369q0 45 27.5 76t81.5 31q53 0 81.5 -31t28.5 -76q0 -43 -28.5 -73.5t-81.5 -30.5q-54 0 -81.5 30.5t-27.5 73.5z" />
    <glyph glyph-name="j" unicode="j" horiz-adv-x="490" 
d="M146 1082h186v-1211q0 -99 -31.5 -168t-94 -104.5t-157.5 -35.5q-25 0 -58.5 5t-56.5 12l1 149q19 -4 43 -6.5t42 -2.5q41 0 69 15t42.5 48t14.5 88v1211zM127 1369q0 45 28 76t81 31q54 0 82 -31t28 -76q0 -43 -28 -73.5t-82 -30.5q-53 0 -81 30.5t-28 73.5z" />
    <glyph glyph-name="k" unicode="k" horiz-adv-x="1038" 
d="M327 1536v-1536h-186v1536h186zM988 1082l-472 -505l-264 -274l-15 197l189 226l336 356h226zM819 0l-386 516l96 165l508 -681h-218z" />
    <glyph glyph-name="l" unicode="l" horiz-adv-x="498" 
d="M342 1536v-1536h-186v1536h186z" />
    <glyph glyph-name="m" unicode="m" horiz-adv-x="1796" 
d="M325 867v-867h-186v1082h176zM287 582l-86 3q1 111 29 205.5t83 164.5t137 108.5t190 38.5q76 0 140 -21.5t111 -67.5t73 -118t26 -174v-721h-185v712q0 85 -28.5 136t-80.5 74.5t-122 23.5q-82 0 -137 -29t-88 -80t-47.5 -116.5t-14.5 -138.5zM988 684l-124 -38
q1 89 29.5 171t83 146t134.5 101.5t183 37.5q87 0 154.5 -23t114 -70.5t70.5 -121.5t24 -176v-711h-186v713q0 91 -28.5 141.5t-80 71t-122.5 20.5q-61 0 -108 -21t-79 -57.5t-48.5 -83.5t-16.5 -100z" />
    <glyph glyph-name="n" unicode="n" horiz-adv-x="1131" 
d="M326 851v-851h-185v1082h175zM282 582l-77 3q1 111 33 205.5t90 164.5t138.5 108.5t178.5 38.5q80 0 144 -21.5t109.5 -68.5t69.5 -121.5t24 -181.5v-709h-186v711q0 85 -25 136.5t-73 75t-118 23.5q-69 0 -125.5 -29t-97 -80t-63 -116.5t-22.5 -138.5z" />
    <glyph glyph-name="o" unicode="o" horiz-adv-x="1168" 
d="M92 529v23q0 117 34 217.5t98 175t155 116t204 41.5q114 0 205.5 -41.5t156 -116t98.5 -175t34 -217.5v-23q0 -117 -34 -217t-98.5 -174.5t-155 -116t-204.5 -41.5t-205 41.5t-155.5 116t-98.5 174.5t-34 217zM277 552v-23q0 -81 19 -152.5t57.5 -126.5t96.5 -86.5
t135 -31.5q76 0 133.5 31.5t95.5 86.5t57.5 126.5t19.5 152.5v23q0 80 -19.5 151.5t-58 127t-96 87.5t-134.5 32q-76 0 -133.5 -32t-96 -87.5t-57.5 -127t-19 -151.5z" />
    <glyph glyph-name="p" unicode="p" horiz-adv-x="1150" 
d="M326 874v-1290h-186v1498h170zM1055 550v-21q0 -118 -28 -218.5t-81.5 -174.5t-131.5 -115t-179 -41q-103 0 -182 34t-134 99t-87.5 156t-44.5 205v112q12 120 45 215t87.5 162.5t132.5 103t180 35.5t181 -39.5t133 -112.5t81.5 -174.5t27.5 -225.5zM869 529v21
q0 81 -17 152.5t-52.5 126t-90.5 86t-131 31.5q-70 0 -121.5 -24t-87.5 -64.5t-58.5 -92t-33.5 -106.5v-259q20 -70 56 -131.5t96 -99t151 -37.5q75 0 129.5 31.5t90 86.5t52.5 126.5t17 152.5z" />
    <glyph glyph-name="q" unicode="q" horiz-adv-x="1164" 
d="M822 -416v1290l16 208h170v-1498h-186zM95 529v21q0 124 29 225.5t85 174.5t135.5 112.5t181.5 39.5t179.5 -35.5t132 -103t86.5 -162.5t44 -215v-92q-11 -119 -43 -214t-86.5 -162t-133 -102.5t-181.5 -35.5q-100 0 -179.5 41t-135 115t-85 174.5t-29.5 218.5zM281 550
v-21q0 -81 17 -152.5t52.5 -126.5t90 -86.5t129.5 -31.5q92 0 153.5 40t98.5 105.5t57 140.5v241q-11 55 -34.5 107t-60.5 93.5t-89.5 66t-122.5 24.5q-76 0 -131 -32t-90.5 -87.5t-52.5 -127.5t-17 -153z" />
    <glyph glyph-name="r" unicode="r" horiz-adv-x="694" 
d="M326 912v-912h-185v1082h180zM664 1088l-1 -172q-23 5 -43.5 6.5t-46.5 1.5q-64 0 -113 -20t-83 -56t-53.5 -85.5t-25.5 -108.5l-52 -30q0 98 19.5 184t60.5 152.5t104.5 104t151.5 37.5q20 0 46 -4.5t36 -9.5z" />
    <glyph glyph-name="s" unicode="s" horiz-adv-x="1057" 
d="M771 287q0 40 -17.5 74.5t-71 63t-160.5 49.5q-90 19 -162.5 45t-123 63t-77.5 87t-27 117q0 64 28.5 121t81 101t126.5 69t165 25q130 0 222 -46t141 -122.5t49 -169.5h-185q0 45 -26.5 87.5t-77 70.5t-123.5 28q-77 0 -124.5 -23.5t-69 -59.5t-21.5 -76
q0 -30 10.5 -53.5t37.5 -43t76 -36.5t125 -34q133 -30 219 -72t128 -103t42 -148q0 -71 -29.5 -130t-85 -101.5t-132 -66t-171.5 -23.5q-143 0 -242 51t-150 132t-51 171h186q4 -76 44 -120.5t98 -63t115 -18.5q76 0 127.5 20t78.5 55t27 80z" />
    <glyph glyph-name="t" unicode="t" horiz-adv-x="670" 
d="M594 1082v-142h-585v142h585zM207 1345h185v-1077q0 -55 17 -83t44 -37t58 -9q23 0 48.5 4.5t38.5 7.5l1 -151q-22 -7 -57.5 -13.5t-85.5 -6.5q-68 0 -125 27t-90.5 90.5t-33.5 171.5v1076z" />
    <glyph glyph-name="u" unicode="u" horiz-adv-x="1129" 
d="M803 250v832h186v-1082h-177zM838 478l77 2q0 -108 -22.5 -199.5t-72.5 -158.5t-131 -104.5t-197 -37.5q-79 0 -144.5 23t-112.5 71t-72.5 125t-25.5 185v698h185v-700q0 -73 16.5 -120.5t45 -75t64 -38.5t73.5 -11q118 0 187 45.5t99.5 123t30.5 172.5z" />
    <glyph glyph-name="v" unicode="v" horiz-adv-x="992" 
d="M470 167l296 915h189l-389 -1082h-124zM223 1082l305 -920l21 -162h-124l-392 1082h190z" />
    <glyph glyph-name="w" unicode="w" horiz-adv-x="1539" 
d="M415 192l278 890h122l-24 -177l-283 -905h-119zM228 1082l237 -900l17 -182h-125l-314 1082h185zM1081 189l226 893h184l-314 -1082h-124zM842 1082l272 -875l31 -207h-118l-291 907l-24 175h130z" />
    <glyph glyph-name="x" unicode="x" horiz-adv-x="1016" 
d="M266 1082l237 -394l240 394h217l-354 -534l365 -548h-214l-250 406l-250 -406h-215l364 548l-353 534h213z" />
    <glyph glyph-name="y" unicode="y" horiz-adv-x="969" 
d="M445 112l301 970h198l-434 -1249q-15 -40 -39.5 -86.5t-62.5 -88.5t-91.5 -68.5t-127.5 -26.5q-22 0 -56 6t-48 10l-1 150q8 -1 25.5 -2.5t24.5 -1.5q63 0 107 16.5t74.5 55t52.5 105.5zM224 1082l281 -840l48 -195l-133 -68l-398 1103h202z" />
    <glyph glyph-name="z" unicode="z" horiz-adv-x="1016" 
d="M947 152v-152h-787v152h787zM918 951l-716 -951h-113v136l711 946h118v-131zM836 1082v-153h-739v153h739z" />
    <glyph glyph-name="braceleft" unicode="{" horiz-adv-x="693" 
d="M632 1597l39 -114q-119 -37 -164 -132.5t-45 -218.5v-207q0 -100 -40.5 -181.5t-128 -129.5t-229.5 -48v122q113 0 162.5 64t49.5 173v207q0 105 32.5 196.5t110 161t213.5 107.5zM671 -251l-39 -115q-136 39 -213.5 108t-110 160.5t-32.5 196.5v206q0 73 -22 126
t-68.5 82.5t-121.5 29.5v122q142 0 229.5 -48t128 -129.5t40.5 -182.5v-206q0 -82 19.5 -152t65 -121.5t124.5 -76.5z" />
    <glyph glyph-name="bar" unicode="|" horiz-adv-x="500" 
d="M325 1456v-1726h-149v1726h149z" />
    <glyph glyph-name="braceright" unicode="}" horiz-adv-x="693" 
d="M20 1483l39 114q137 -38 214.5 -107.5t109.5 -161t32 -196.5v-207q0 -72 22 -125.5t68.5 -82.5t121.5 -29v-113q-141 0 -229 45.5t-128.5 125t-40.5 179.5v207q0 82 -19 152.5t-64.5 122t-125.5 76.5zM59 -366l-39 115q79 25 124.5 76.5t65 121.5t19.5 152v206
q0 101 40.5 180t128.5 124.5t229 45.5v-112q-112 0 -162 -64.5t-50 -173.5v-206q0 -105 -32 -196.5t-109.5 -160.5t-214.5 -108z" />
    <glyph glyph-name="asciitilde" unicode="~" horiz-adv-x="1393" 
d="M1111 777l152 1q0 -77 -23.5 -145t-67 -119.5t-103 -81t-130.5 -29.5q-87 0 -153.5 35t-144.5 103q-51 47 -94 73t-93 26q-51 0 -87 -24.5t-55.5 -69.5t-19.5 -108l-161 -2q0 78 23.5 145t66.5 117t102.5 77.5t130.5 27.5q88 0 156.5 -37t141.5 -102q55 -50 96.5 -74.5
t90.5 -24.5q52 0 90.5 27t60 75t21.5 110z" />
    <glyph glyph-name="uni00A0" unicode="&#xa0;" horiz-adv-x="508" 
 />
    <glyph glyph-name="exclamdown" unicode="&#xa1;" horiz-adv-x="500" 
d="M157 -361l14 1045h167l14 -1045h-195zM358 996q0 -44 -27.5 -75t-81.5 -31q-53 0 -81.5 31t-28.5 75t28.5 74.5t81.5 30.5q54 0 81.5 -30.5t27.5 -74.5z" />
    <glyph glyph-name="cent" unicode="&#xa2;" horiz-adv-x="1121" 
d="M670 1318v-288h-186v288h186zM670 42v-287h-186v287h186zM587 132q66 0 122 27t92 74.5t41 108.5h176q-5 -96 -65 -178.5t-155.5 -133t-210.5 -50.5q-122 0 -213 43t-150.5 118t-89 172.5t-29.5 206.5v42q0 109 29.5 206.5t89.5 172.5t150.5 118t212.5 43
q127 0 222 -51.5t149.5 -140t59.5 -200.5h-176q-5 67 -37.5 121t-88 86.5t-129.5 32.5q-85 0 -142.5 -33.5t-91 -90t-48 -125t-14.5 -139.5v-42q0 -71 14 -140t47.5 -125t91 -89.5t143.5 -33.5z" />
    <glyph glyph-name="sterling" unicode="&#xa3;" horiz-adv-x="1191" 
d="M1128 0h-1033v157h1033v-157zM763 623h-672v157h672v-157zM435 1039l22 -637q1 -94 -27 -175.5t-84 -122.5l-174 53q35 9 55.5 50.5t29 95.5t8.5 98l-22 638q0 138 58 235.5t158.5 149.5t227.5 52q131 0 223 -49t141 -136.5t49 -203.5h-192q0 84 -33.5 135t-87.5 74
t-116 23q-66 0 -119.5 -32.5t-85 -95t-31.5 -152.5z" />
    <glyph glyph-name="currency" unicode="&#xa4;" horiz-adv-x="1461" 
d="M312 608q0 -94 33 -177t91 -145.5t134.5 -98t164.5 -35.5t164.5 35.5t134.5 98t90.5 145.5t32.5 177q0 95 -32.5 177t-90.5 144.5t-134.5 97.5t-164.5 35t-164.5 -35t-134.5 -97.5t-91 -144.5t-33 -177zM140 608q0 133 46.5 247t128 199t189.5 132.5t231 47.5t231 -47.5
t190 -132.5t128 -199t46 -247t-46 -247t-128 -199.5t-190 -133.5t-231 -48t-231 48t-189.5 133.5t-128 199.5t-46.5 247zM1371 1128l-202 -206l-132 137l202 206zM438 180l-202 -206l-131 136l202 205zM1239 -27l-202 206l132 136l202 -205zM307 922l-202 206l131 136
l202 -206z" />
    <glyph glyph-name="yen" unicode="&#xa5;" horiz-adv-x="1076" 
d="M955 737v-125h-835v125h835zM955 446v-124h-835v124h835zM480 666l367 790h213l-433 -852h-123zM232 1456l369 -797l-29 -55h-122l-435 852h217zM630 774v-774h-192v774h192z" />
    <glyph glyph-name="brokenbar" unicode="&#xa6;" horiz-adv-x="492" 
d="M333 -270h-185v792h185v-792zM333 1456v-758h-185v758h185z" />
    <glyph glyph-name="section" unicode="&#xa7;" horiz-adv-x="1256" 
d="M699 108v118q83 0 141 26t89 72t31 104q0 47 -17.5 82.5t-58.5 65t-110 57t-171 58.5q-109 30 -194.5 64.5t-145 82t-90.5 114t-31 159.5q0 83 34.5 150.5t98.5 115.5t154 74t202 26q153 0 263 -50t169 -146t59 -235h-185q0 77 -35.5 140.5t-103.5 101t-167 37.5
q-105 0 -172 -29t-99.5 -77t-32.5 -106q0 -50 15.5 -86t53.5 -64t106.5 -53.5t173.5 -54.5q112 -31 199 -66.5t147 -83t91.5 -114.5t31.5 -160q0 -76 -31.5 -136t-90 -101.5t-141 -63.5t-183.5 -22zM525 874v-121q-83 0 -137 -26t-80 -71t-26 -103q0 -50 15.5 -86.5
t54.5 -65.5t108.5 -55t176.5 -56q111 -31 197 -66t145 -81.5t90 -112.5t31 -159q0 -87 -34.5 -155t-98.5 -115t-153.5 -71.5t-200.5 -24.5q-96 0 -189 22t-168.5 72t-120 133t-44.5 204l185 2q0 -79 30 -133.5t79.5 -86.5t109 -46.5t118.5 -14.5q96 0 163.5 28t103 76
t35.5 108q0 47 -17 81.5t-57 63t-108 55.5t-169 57q-109 30 -196 65.5t-147 83.5t-92 115.5t-32 160.5q0 74 30 133.5t86 101.5t135 65t177 23z" />
    <glyph glyph-name="dieresis" unicode="&#xa8;" horiz-adv-x="857" 
d="M101 1371q0 45 28 76t81 31q54 0 82 -31t28 -76q0 -43 -28 -73.5t-82 -30.5q-53 0 -81 30.5t-28 73.5zM532 1369q0 45 27.5 76t81.5 31q53 0 81.5 -31t28.5 -76q0 -43 -28.5 -73.5t-81.5 -30.5q-54 0 -81.5 30.5t-27.5 73.5z" />
    <glyph glyph-name="copyright" unicode="&#xa9;" horiz-adv-x="1609" 
d="M974 598h146q0 -157 -89.5 -235.5t-242.5 -78.5q-106 0 -183.5 49t-120 136t-42.5 202v115q0 115 42.5 202t120 136t183.5 49q153 0 243 -78t90 -235h-146q0 99 -47.5 142t-139.5 43q-66 0 -111 -33t-68 -91.5t-23 -133.5v-116q0 -76 23 -134.5t68 -91.5t111 -33
q92 0 139 43t47 143zM207 729q0 -133 46 -248t128 -201t190 -134t231 -48t230.5 48t189 134t127.5 201t46 248q0 134 -46 248t-127.5 199.5t-189 133t-230.5 47.5t-231 -47.5t-190 -133t-128 -199.5t-46 -248zM92 729q0 159 55 295t153 237.5t226.5 158t275.5 56.5
t275.5 -56.5t226 -158t152.5 -237.5t55 -295t-55 -295t-152.5 -238.5t-226 -159.5t-275.5 -57t-275.5 57t-226.5 159.5t-153 238.5t-55 295z" />
    <glyph glyph-name="ordfeminine" unicode="&#xaa;" horiz-adv-x="916" 
d="M595 862v340q0 43 -13.5 73t-41 45.5t-69.5 15.5q-69 0 -108.5 -26.5t-39.5 -78.5l-161 13q0 68 38.5 120.5t108 82.5t162.5 30q86 0 150.5 -31t100.5 -92t36 -153v-314q0 -49 6 -93t20 -88h-165q-24 75 -24 156zM635 1149l1 -111h-149q-60 0 -99.5 -16t-58.5 -42
t-19 -58q0 -43 30.5 -68t94.5 -25q43 0 86.5 19.5t72.5 47.5t29 53l18 -112q-15 -32 -46.5 -66t-81 -56.5t-117.5 -22.5q-120 0 -184.5 61.5t-64.5 164.5q0 74 37.5 125.5t113 78.5t188.5 27h149z" />
    <glyph glyph-name="guillemotleft" unicode="&#xab;" horiz-adv-x="961" 
d="M538 946l-261 -402l-176 1v13l295 388h142zM277 553l261 -403h-142l-295 389v13zM869 946l-261 -402l-176 1v13l295 388h142zM608 553l261 -403h-142l-295 389v13z" />
    <glyph glyph-name="logicalnot" unicode="&#xac;" horiz-adv-x="1134" 
d="M958 801v-162h-831v162h831zM958 726v-350h-185v350h185z" />
    <glyph glyph-name="uni00AD" unicode="&#xad;" horiz-adv-x="566" 
d="M526 695v-152h-488v152h488z" />
    <glyph glyph-name="registered" unicode="&#xae;" horiz-adv-x="1610" 
d="M827 655h-218l-2 128h203q42 1 78.5 15t59 40.5t22.5 65.5q0 50 -17 79t-56.5 42t-107.5 13h-136v-721h-141v848h277q99 0 171 -28t111 -84.5t39 -142.5q0 -54 -25 -97t-73 -74t-117 -50q-3 0 -6.5 -6.5t-6.5 -6.5q-17 -10 -21.5 -14.5t-9 -5.5t-24.5 -1zM817 655l20 90
q155 0 211.5 -65.5t56.5 -165.5v-54q0 -37 4 -70.5t13 -56.5v-16h-145q-10 26 -11.5 74t-1.5 70v52q0 73 -33.5 107.5t-113.5 34.5zM206 729q0 -133 46 -248t128 -201t190 -134t231 -48t230.5 48t189 134t127.5 201t46 248q0 134 -46 248t-127.5 199.5t-189 133t-230.5 47.5
t-231 -47.5t-190 -133t-128 -199.5t-46 -248zM91 729q0 159 55 295t153 237.5t226.5 158t275.5 56.5t275.5 -56.5t226 -158t152.5 -237.5t55 -295t-55 -295t-152.5 -238.5t-226 -159.5t-275.5 -57t-275.5 57t-226.5 159.5t-153 238.5t-55 295z" />
    <glyph glyph-name="macron" unicode="&#xaf;" horiz-adv-x="939" 
d="M814 1445v-142h-671v142h671z" />
    <glyph glyph-name="degree" unicode="&#xb0;" horiz-adv-x="765" 
d="M131 1217q0 71 35 130t93 94.5t127 35.5t126 -35.5t91 -94.5t34 -130t-34 -129.5t-91 -93t-126 -34.5t-127 34.5t-93 93t-35 129.5zM255 1217q0 -55 38.5 -92t92.5 -37t90.5 37t36.5 92q0 56 -36.5 94t-90.5 38t-92.5 -38t-38.5 -94z" />
    <glyph glyph-name="plusminus" unicode="&#xb1;" horiz-adv-x="1095" 
d="M1013 855v-152h-916v152h916zM650 1267v-978h-167v978h167zM971 152v-151h-835v151h835z" />
    <glyph glyph-name="uni00B2" unicode="&#xb2;" 
d="M683 795v-128h-598v108l288 271q45 42 71 75t37.5 59.5t11.5 48.5q0 48 -32 79t-91 31q-75 0 -110.5 -38t-35.5 -95h-158q0 72 36 131t103 94.5t161 35.5q90 0 154 -29t98 -81.5t34 -125.5q0 -53 -23.5 -99t-66.5 -92t-102 -99l-175 -146h398z" />
    <glyph glyph-name="uni00B3" unicode="&#xb3;" 
d="M266 1126h84q49 0 81 14t48.5 38.5t16.5 56.5q0 44 -32 74t-101 30q-57 0 -94.5 -25t-37.5 -68h-157q0 68 38 117.5t103 76.5t145 27q87 0 153 -25.5t103 -75.5t37 -123q0 -53 -32.5 -97.5t-94 -71t-149.5 -26.5h-111v78zM266 1011v78h111q100 0 164 -24t95 -69t31 -109
q0 -73 -40 -125t-109.5 -79t-156.5 -27q-75 0 -143.5 24.5t-111.5 76.5t-43 133h157q0 -45 40 -75.5t106 -30.5q70 0 106.5 31t36.5 80q0 42 -19.5 67.5t-55 37t-84.5 11.5h-84z" />
    <glyph glyph-name="acute" unicode="&#xb4;" horiz-adv-x="642" 
d="M123 1242l194 294h223l-268 -294h-149z" />
    <glyph glyph-name="mu" unicode="&#xb5;" horiz-adv-x="1161" 
d="M821 1082h185v-1082h-167l-18 250v832zM854 503l69 2q0 -114 -20.5 -210t-63.5 -167t-110 -110t-161 -39q-76 0 -135.5 19.5t-102 62t-70.5 110.5l-37 289h116q0 -103 17 -168t47.5 -100t70.5 -48t86 -13q89 0 146.5 27.5t89.5 77.5t45 118t13 149zM155 1082h184v-1498
h-184v1498z" />
    <glyph glyph-name="paragraph" unicode="&#xb6;" horiz-adv-x="1002" 
d="M833 0h-186v520h-87q-159 0 -269 60.5t-166.5 166.5t-56.5 241q0 134 56.5 240t166.5 167t269 61h273v-1456z" />
    <glyph glyph-name="periodcentered" unicode="&#xb7;" horiz-adv-x="535" 
d="M148 729q0 47 29 79.5t85 32.5t85.5 -32.5t29.5 -79.5q0 -46 -29.5 -77.5t-85.5 -31.5t-85 31.5t-29 77.5z" />
    <glyph glyph-name="cedilla" unicode="&#xb8;" horiz-adv-x="508" 
d="M152 0h133l-12 -53q58 -10 105.5 -48t47.5 -125q0 -47 -19.5 -85.5t-57.5 -66t-94.5 -42.5t-131.5 -15l-7 107q46 0 83.5 10t60 32t22.5 57q0 33 -17 52t-52.5 28.5t-91.5 13.5z" />
    <glyph glyph-name="uni00B9" unicode="&#xb9;" 
d="M495 1456v-789h-156v601l-216 -57v129l354 116h18z" />
    <glyph glyph-name="ordmasculine" unicode="&#xba;" horiz-adv-x="932" 
d="M123 1043v81q0 103 42 182.5t118.5 125t181.5 45.5q106 0 182.5 -45.5t118 -125t41.5 -182.5v-81q0 -103 -41.5 -182.5t-117.5 -124.5t-181 -45q-106 0 -183 45t-119 124.5t-42 182.5zM286 1124v-81q0 -61 19.5 -109t60 -76t101.5 -28q60 0 99.5 28t59 76t19.5 109v81
q0 60 -20 108t-59.5 76t-100.5 28q-60 0 -100 -28t-59.5 -76t-19.5 -108z" />
    <glyph glyph-name="guillemotright" unicode="&#xbb;" horiz-adv-x="960" 
d="M103 153l261 402l176 -1v-13l-295 -388h-142zM103 949h142l295 -389v-13l-176 -1zM452 153l261 402l176 -1v-13l-295 -388h-142zM452 949h142l295 -389v-13l-176 -1z" />
    <glyph glyph-name="onequarter" unicode="&#xbc;" horiz-adv-x="1500" 
d="M457 1453v-789h-156v601l-216 -57v129l354 116h18zM1155 1257l-711 -1138l-104 66l711 1138zM1426 300v-130h-639l-7 102l378 517h124l-137 -229l-207 -260h488zM1318 789v-789h-157v789h157z" />
    <glyph glyph-name="onehalf" unicode="&#xbd;" horiz-adv-x="1589" 
d="M1111 1257l-711 -1138l-104 66l711 1138zM452 1453v-789h-156v601l-216 -57v129l354 116h18zM1481 128v-128h-598v108l288 271q45 42 71 75t37.5 59.5t11.5 48.5q0 48 -32 79t-91 31q-75 0 -110.5 -38t-35.5 -95h-158q0 72 36 131t103 94.5t161 35.5q90 0 154 -29
t98 -81.5t34 -125.5q0 -53 -23.5 -99t-66.5 -92t-102 -99l-175 -146h398z" />
    <glyph glyph-name="threequarters" unicode="&#xbe;" horiz-adv-x="1593" 
d="M1282 1257l-711 -1138l-104 66l711 1138zM1518 300v-130h-639l-7 102l378 517h124l-137 -229l-207 -260h488zM1410 789v-789h-157v789h157zM315 1126h84q49 0 81 14t48.5 38.5t16.5 56.5q0 44 -32 74t-101 30q-57 0 -94.5 -25t-37.5 -68h-157q0 68 38 117.5t103 76.5
t145 27q87 0 153 -25.5t103 -75.5t37 -123q0 -53 -32.5 -97.5t-94 -71t-149.5 -26.5h-111v78zM315 1011v78h111q100 0 164 -24t95 -69t31 -109q0 -73 -40 -125t-109.5 -79t-156.5 -27q-75 0 -143.5 24.5t-111.5 76.5t-43 133h157q0 -45 40 -75.5t106 -30.5q70 0 106.5 31
t36.5 80q0 42 -19.5 67.5t-55 37t-84.5 11.5h-84z" />
    <glyph glyph-name="questiondown" unicode="&#xbf;" horiz-adv-x="970" 
d="M403 680h186q-1 -96 -17.5 -155.5t-53 -109.5t-98.5 -117q-42 -45 -80 -87t-62 -92t-24 -119q0 -73 26 -123t76 -75.5t122 -25.5q59 0 110 22t83.5 67.5t32.5 114.5h185q-1 -113 -55.5 -195.5t-147 -126.5t-208.5 -44q-130 0 -221.5 45t-140 130t-48.5 205
q0 91 36.5 168.5t92.5 144t116 124.5q36 35 55.5 73.5t27 82.5t7.5 93zM597 997q0 -44 -28 -75t-81 -31q-54 0 -82 31t-28 75t28 74.5t82 30.5q53 0 81 -30.5t28 -74.5z" />
    <glyph glyph-name="Agrave" unicode="&#xc0;" horiz-adv-x="1336" 
d="M708 1327l-482 -1327h-197l555 1456h127zM1112 0l-483 1327l-3 129h127l557 -1456h-198zM1087 539v-158h-818v158h818zM584 1847l193 -294h-159l-258 294h224z" />
    <glyph glyph-name="Aacute" unicode="&#xc1;" horiz-adv-x="1336" 
d="M708 1327l-482 -1327h-197l555 1456h127zM1112 0l-483 1327l-3 129h127l557 -1456h-198zM1087 539v-158h-818v158h818zM570 1553l194 294h223l-268 -294h-149z" />
    <glyph glyph-name="Acircumflex" unicode="&#xc2;" horiz-adv-x="1336" 
d="M708 1327l-482 -1327h-197l555 1456h127zM1112 0l-483 1327l-3 129h127l557 -1456h-198zM1087 539v-158h-818v158h818zM728 1847l248 -273v-10h-154l-150 169l-149 -169h-152v11l245 272h112z" />
    <glyph glyph-name="Atilde" unicode="&#xc3;" horiz-adv-x="1336" 
d="M708 1327l-482 -1327h-197l555 1456h127zM1112 0l-483 1327l-3 129h127l557 -1456h-198zM1087 539v-158h-818v158h818zM902 1827l125 -11q0 -73 -29 -128t-77.5 -85t-109.5 -30q-51 0 -84 14.5t-59 33t-54.5 33t-70.5 14.5t-70.5 -32t-28.5 -79l-125 6q0 73 28.5 128.5
t77.5 87t109 31.5q43 0 75.5 -14.5t61.5 -33t60 -33t71 -14.5q42 0 71 32.5t29 79.5z" />
    <glyph glyph-name="Adieresis" unicode="&#xc4;" horiz-adv-x="1336" 
d="M708 1327l-482 -1327h-197l555 1456h127zM1112 0l-483 1327l-3 129h127l557 -1456h-198zM1087 539v-158h-818v158h818zM350 1682q0 45 28 76t81 31q54 0 82 -31t28 -76q0 -43 -28 -73.5t-82 -30.5q-53 0 -81 30.5t-28 73.5zM781 1680q0 45 27.5 76t81.5 31q53 0 81.5 -31
t28.5 -76q0 -43 -28.5 -73.5t-81.5 -30.5q-54 0 -81.5 30.5t-27.5 73.5z" />
    <glyph glyph-name="Aring" unicode="&#xc5;" horiz-adv-x="1336" 
d="M708 1327l-482 -1327h-197l555 1456h127zM1112 0l-483 1327l-3 129h127l557 -1456h-198zM1087 539v-158h-818v158h818zM457 1731q0 58 28.5 105t77 75t109.5 28q91 0 153 -61t62 -147q0 -58 -28.5 -104.5t-77 -73t-109.5 -26.5q-91 0 -153 58t-62 146zM556 1731
q0 -44 32.5 -79.5t83.5 -35.5t83.5 34.5t32.5 80.5q0 47 -32.5 82.5t-83.5 35.5t-83.5 -35.5t-32.5 -82.5z" />
    <glyph glyph-name="AE" unicode="&#xc6;" horiz-adv-x="1914" 
d="M970 1307l-758 -1307h-227l881 1456h119zM1115 528v-175h-743v175h743zM1880 152v-152h-733v152h733zM1121 1456l61 -1456h-186l-61 1456h186zM1737 834v-152h-630v152h630zM1818 1456v-152h-732v152h732z" />
    <glyph glyph-name="Ccedilla" unicode="&#xc7;" horiz-adv-x="1333" 
d="M1048 463h192q-15 -138 -79 -247t-181 -172.5t-292 -63.5q-128 0 -232.5 48t-179.5 136.5t-115.5 213t-40.5 277.5v145q0 153 40.5 277.5t117 213.5t184.5 137t243 48q165 0 279 -62t177.5 -171.5t78.5 -253.5h-192q-14 102 -52 175.5t-108 113.5t-183 40
q-97 0 -170.5 -37t-123 -105t-74.5 -163t-25 -211v-147q0 -107 22.5 -201t68.5 -165t117 -111.5t168 -40.5q123 0 196 39t110.5 112t53.5 175zM619 -10h133l-12 -53q58 -10 105.5 -48t47.5 -125q0 -47 -19.5 -85.5t-57.5 -66t-94.5 -42.5t-131.5 -15l-7 107q46 0 83.5 10
t60 32t22.5 57q0 33 -17 52t-52.5 28.5t-91.5 13.5z" />
    <glyph glyph-name="Egrave" unicode="&#xc8;" horiz-adv-x="1164" 
d="M1094 157v-157h-771v157h771zM362 1456v-1456h-193v1456h193zM992 830v-157h-669v157h669zM1084 1456v-158h-761v158h761zM531 1858l193 -294h-159l-258 294h224z" />
    <glyph glyph-name="Eacute" unicode="&#xc9;" horiz-adv-x="1164" 
d="M1094 157v-157h-771v157h771zM362 1456v-1456h-193v1456h193zM992 830v-157h-669v157h669zM1084 1456v-158h-761v158h761zM517 1564l194 294h223l-268 -294h-149z" />
    <glyph glyph-name="Ecircumflex" unicode="&#xca;" horiz-adv-x="1164" 
d="M1094 157v-157h-771v157h771zM362 1456v-1456h-193v1456h193zM992 830v-157h-669v157h669zM1084 1456v-158h-761v158h761zM675 1858l248 -273v-10h-154l-150 169l-149 -169h-152v11l245 272h112z" />
    <glyph glyph-name="Edieresis" unicode="&#xcb;" horiz-adv-x="1164" 
d="M1094 157v-157h-771v157h771zM362 1456v-1456h-193v1456h193zM992 830v-157h-669v157h669zM1084 1456v-158h-761v158h761zM297 1693q0 45 28 76t81 31q54 0 82 -31t28 -76q0 -43 -28 -73.5t-82 -30.5q-53 0 -81 30.5t-28 73.5zM728 1691q0 45 27.5 76t81.5 31
q53 0 81.5 -31t28.5 -76q0 -43 -28.5 -73.5t-81.5 -30.5q-54 0 -81.5 30.5t-27.5 73.5z" />
    <glyph glyph-name="Igrave" unicode="&#xcc;" horiz-adv-x="557" 
d="M376 1456v-1456h-193v1456h193zM191 1858l193 -294h-159l-258 294h224z" />
    <glyph glyph-name="Iacute" unicode="&#xcd;" horiz-adv-x="557" 
d="M376 1456v-1456h-193v1456h193zM177 1564l194 294h223l-268 -294h-149z" />
    <glyph glyph-name="Icircumflex" unicode="&#xce;" horiz-adv-x="557" 
d="M376 1456v-1456h-193v1456h193zM335 1858l248 -273v-10h-154l-150 169l-149 -169h-152v11l245 272h112z" />
    <glyph glyph-name="Idieresis" unicode="&#xcf;" horiz-adv-x="557" 
d="M376 1456v-1456h-193v1456h193zM-43 1693q0 45 28 76t81 31q54 0 82 -31t28 -76q0 -43 -28 -73.5t-82 -30.5q-53 0 -81 30.5t-28 73.5zM388 1691q0 45 27.5 76t81.5 31q53 0 81.5 -31t28.5 -76q0 -43 -28.5 -73.5t-81.5 -30.5q-54 0 -81.5 30.5t-27.5 73.5z" />
    <glyph glyph-name="Eth" unicode="&#xd0;" horiz-adv-x="1374" 
d="M593 0h-304l2 157h302q156 0 260 65.5t156.5 184t52.5 277.5v89q0 125 -30 222.5t-88 165t-141.5 102.5t-191.5 35h-328v158h328q143 0 261 -47.5t203.5 -137t131.5 -216t46 -284.5v-87q0 -158 -46 -284.5t-132.5 -215.5t-208 -136.5t-273.5 -47.5zM392 1456v-1456h-193
v1456h193zM674 817v-152h-637v152h637z" />
    <glyph glyph-name="Ntilde" unicode="&#xd1;" horiz-adv-x="1461" 
d="M1289 1456v-1456h-194l-733 1123v-1123h-193v1456h193l736 -1126v1126h191zM956 1827l125 -11q0 -73 -29 -128t-77.5 -85t-109.5 -30q-51 0 -84 14.5t-59 33t-54.5 33t-70.5 14.5t-70.5 -32t-28.5 -79l-125 6q0 73 28.5 128.5t77.5 87t109 31.5q43 0 75.5 -14.5t61.5 -33
t60 -33t71 -14.5q42 0 71 32.5t29 79.5z" />
    <glyph glyph-name="Ograve" unicode="&#xd2;" horiz-adv-x="1409" 
d="M1290 774v-92q0 -164 -41 -294t-118 -221t-184.5 -139t-240.5 -48q-129 0 -236.5 48t-186 139t-121.5 221t-43 294v92q0 164 42.5 293.5t120.5 221t185.5 139.5t236.5 48q133 0 240.5 -48t185 -139.5t119 -221t41.5 -293.5zM1099 682v94q0 130 -26.5 230t-77.5 168
t-124.5 103t-166.5 35q-90 0 -162.5 -35t-124 -103t-79.5 -168t-28 -230v-94q0 -131 28 -231.5t80.5 -169t125 -103.5t162.5 -35q94 0 167 35t123.5 103.5t76.5 169t26 231.5zM619 1849l193 -294h-159l-258 294h224z" />
    <glyph glyph-name="Oacute" unicode="&#xd3;" horiz-adv-x="1409" 
d="M1290 774v-92q0 -164 -41 -294t-118 -221t-184.5 -139t-240.5 -48q-129 0 -236.5 48t-186 139t-121.5 221t-43 294v92q0 164 42.5 293.5t120.5 221t185.5 139.5t236.5 48q133 0 240.5 -48t185 -139.5t119 -221t41.5 -293.5zM1099 682v94q0 130 -26.5 230t-77.5 168
t-124.5 103t-166.5 35q-90 0 -162.5 -35t-124 -103t-79.5 -168t-28 -230v-94q0 -131 28 -231.5t80.5 -169t125 -103.5t162.5 -35q94 0 167 35t123.5 103.5t76.5 169t26 231.5zM605 1555l194 294h223l-268 -294h-149z" />
    <glyph glyph-name="Ocircumflex" unicode="&#xd4;" horiz-adv-x="1409" 
d="M1290 774v-92q0 -164 -41 -294t-118 -221t-184.5 -139t-240.5 -48q-129 0 -236.5 48t-186 139t-121.5 221t-43 294v92q0 164 42.5 293.5t120.5 221t185.5 139.5t236.5 48q133 0 240.5 -48t185 -139.5t119 -221t41.5 -293.5zM1099 682v94q0 130 -26.5 230t-77.5 168
t-124.5 103t-166.5 35q-90 0 -162.5 -35t-124 -103t-79.5 -168t-28 -230v-94q0 -131 28 -231.5t80.5 -169t125 -103.5t162.5 -35q94 0 167 35t123.5 103.5t76.5 169t26 231.5zM763 1849l248 -273v-10h-154l-150 169l-149 -169h-152v11l245 272h112z" />
    <glyph glyph-name="Otilde" unicode="&#xd5;" horiz-adv-x="1409" 
d="M1290 774v-92q0 -164 -41 -294t-118 -221t-184.5 -139t-240.5 -48q-129 0 -236.5 48t-186 139t-121.5 221t-43 294v92q0 164 42.5 293.5t120.5 221t185.5 139.5t236.5 48q133 0 240.5 -48t185 -139.5t119 -221t41.5 -293.5zM1099 682v94q0 130 -26.5 230t-77.5 168
t-124.5 103t-166.5 35q-90 0 -162.5 -35t-124 -103t-79.5 -168t-28 -230v-94q0 -131 28 -231.5t80.5 -169t125 -103.5t162.5 -35q94 0 167 35t123.5 103.5t76.5 169t26 231.5zM937 1829l125 -11q0 -73 -29 -128t-77.5 -85t-109.5 -30q-51 0 -84 14.5t-59 33t-54.5 33
t-70.5 14.5t-70.5 -32t-28.5 -79l-125 6q0 73 28.5 128.5t77.5 87t109 31.5q43 0 75.5 -14.5t61.5 -33t60 -33t71 -14.5q42 0 71 32.5t29 79.5z" />
    <glyph glyph-name="Odieresis" unicode="&#xd6;" horiz-adv-x="1409" 
d="M1290 774v-92q0 -164 -41 -294t-118 -221t-184.5 -139t-240.5 -48q-129 0 -236.5 48t-186 139t-121.5 221t-43 294v92q0 164 42.5 293.5t120.5 221t185.5 139.5t236.5 48q133 0 240.5 -48t185 -139.5t119 -221t41.5 -293.5zM1099 682v94q0 130 -26.5 230t-77.5 168
t-124.5 103t-166.5 35q-90 0 -162.5 -35t-124 -103t-79.5 -168t-28 -230v-94q0 -131 28 -231.5t80.5 -169t125 -103.5t162.5 -35q94 0 167 35t123.5 103.5t76.5 169t26 231.5zM385 1684q0 45 28 76t81 31q54 0 82 -31t28 -76q0 -43 -28 -73.5t-82 -30.5q-53 0 -81 30.5
t-28 73.5zM816 1682q0 45 27.5 76t81.5 31q53 0 81.5 -31t28.5 -76q0 -43 -28.5 -73.5t-81.5 -30.5q-54 0 -81.5 30.5t-27.5 73.5z" />
    <glyph glyph-name="multiply" unicode="&#xd7;" horiz-adv-x="1093" 
d="M208 206l-119 123l779 795l119 -124zM871 206l-779 794l119 124l779 -795z" />
    <glyph glyph-name="Oslash" unicode="&#xd8;" horiz-adv-x="1409" 
d="M1309 1516l-1002 -1609h-143l1005 1609h140zM1290 774v-92q0 -164 -41 -294t-118 -221t-184.5 -139t-240.5 -48q-103 0 -193 31t-162.5 90.5t-124.5 145t-79.5 195t-27.5 240.5v92q0 164 42.5 293.5t120.5 221t185.5 139.5t236.5 48q106 0 196.5 -31t162.5 -90.5
t122.5 -145t77.5 -195t27 -240.5zM1099 682v94q0 104 -17 188.5t-50 149.5t-81 109t-110 66.5t-137 22.5q-90 0 -162.5 -35t-124 -103t-79.5 -168t-28 -230v-94q0 -105 18 -190t52.5 -150.5t83 -109.5t109.5 -66.5t133 -22.5q94 0 167 35t123.5 103.5t76.5 169t26 231.5z
" />
    <glyph glyph-name="Ugrave" unicode="&#xd9;" horiz-adv-x="1328" 
d="M1002 1456h192v-985q0 -164 -73 -273t-193.5 -163.5t-261.5 -54.5q-148 0 -267.5 54.5t-189 163.5t-69.5 273v985h191v-985q0 -114 42 -188t117.5 -110t175.5 -36q101 0 176.5 36t117.5 110t42 188v985zM579 1847l193 -294h-159l-258 294h224z" />
    <glyph glyph-name="Uacute" unicode="&#xda;" horiz-adv-x="1328" 
d="M1002 1456h192v-985q0 -164 -73 -273t-193.5 -163.5t-261.5 -54.5q-148 0 -267.5 54.5t-189 163.5t-69.5 273v985h191v-985q0 -114 42 -188t117.5 -110t175.5 -36q101 0 176.5 36t117.5 110t42 188v985zM565 1553l194 294h223l-268 -294h-149z" />
    <glyph glyph-name="Ucircumflex" unicode="&#xdb;" horiz-adv-x="1328" 
d="M1002 1456h192v-985q0 -164 -73 -273t-193.5 -163.5t-261.5 -54.5q-148 0 -267.5 54.5t-189 163.5t-69.5 273v985h191v-985q0 -114 42 -188t117.5 -110t175.5 -36q101 0 176.5 36t117.5 110t42 188v985zM723 1847l248 -273v-10h-154l-150 169l-149 -169h-152v11l245 272
h112z" />
    <glyph glyph-name="Udieresis" unicode="&#xdc;" horiz-adv-x="1328" 
d="M1002 1456h192v-985q0 -164 -73 -273t-193.5 -163.5t-261.5 -54.5q-148 0 -267.5 54.5t-189 163.5t-69.5 273v985h191v-985q0 -114 42 -188t117.5 -110t175.5 -36q101 0 176.5 36t117.5 110t42 188v985zM345 1682q0 45 28 76t81 31q54 0 82 -31t28 -76q0 -43 -28 -73.5
t-82 -30.5q-53 0 -81 30.5t-28 73.5zM776 1680q0 45 27.5 76t81.5 31q53 0 81.5 -31t28.5 -76q0 -43 -28.5 -73.5t-81.5 -30.5q-54 0 -81.5 30.5t-27.5 73.5z" />
    <glyph glyph-name="Yacute" unicode="&#xdd;" horiz-adv-x="1230" 
d="M236 1456l378 -731l379 731h219l-502 -912v-544h-193v544l-502 912h221zM516 1552l194 294h223l-268 -294h-149z" />
    <glyph glyph-name="Thorn" unicode="&#xde;" horiz-adv-x="1210" 
d="M167 1456h185v-1456h-185v1456zM260 1163h370q158 0 266.5 -55t164.5 -151t56 -219q0 -122 -56 -218t-164.5 -151t-266.5 -55h-319v151h319q108 0 174.5 39.5t97 101.5t30.5 130q0 70 -30.5 133t-97 103t-174.5 40h-280z" />
    <glyph glyph-name="germandbls" unicode="&#xdf;" horiz-adv-x="1218" 
d="M324 1112v-1112h-184v1112q0 110 28.5 192.5t80.5 138t124 83.5t160 28q109 0 193.5 -36t133.5 -110.5t49 -190.5q0 -80 -19.5 -133.5t-44.5 -94t-44.5 -79.5t-19.5 -90q0 -55 35 -98.5t87 -83.5t104.5 -85t87.5 -102t35 -134q0 -114 -49.5 -189t-136.5 -111.5
t-199 -36.5q-54 0 -114 10.5t-109.5 27t-75.5 34.5l42 155q35 -22 101.5 -49t136.5 -27q78 0 126.5 24t70.5 64t22 89q0 57 -35 100.5t-87 84t-104.5 85.5t-87.5 104t-35 140q0 60 21 106t48 86.5t48 85t21 101.5q0 67 -25 111.5t-68 67.5t-98 23q-69 0 -118 -31t-75 -95.5
t-26 -164.5z" />
    <glyph glyph-name="agrave" unicode="&#xe0;" horiz-adv-x="1114" 
d="M779 185v557q0 64 -25.5 111.5t-76.5 73.5t-126 26q-70 0 -122.5 -24t-82 -63t-29.5 -84h-185q0 58 30 115t86.5 103.5t136 74t177.5 27.5q118 0 208.5 -40t142 -120.5t51.5 -201.5v-504q0 -54 9.5 -115t28.5 -105v-16h-193q-14 32 -22 85.5t-8 99.5zM811 656l2 -130
h-187q-79 0 -141 -12.5t-104 -37.5t-64 -62.5t-22 -87.5q0 -51 23 -93t69.5 -66.5t114.5 -24.5q85 0 150 36t103.5 88t41.5 101l79 -89q-7 -42 -38 -93t-82.5 -97.5t-122 -77t-158.5 -30.5q-110 0 -192.5 43t-128 115.5t-45.5 162.5q0 87 34 153.5t98 111t154 67.5t201 23
h215zM494 1536l193 -294h-159l-258 294h224z" />
    <glyph glyph-name="aacute" unicode="&#xe1;" horiz-adv-x="1114" 
d="M779 185v557q0 64 -25.5 111.5t-76.5 73.5t-126 26q-70 0 -122.5 -24t-82 -63t-29.5 -84h-185q0 58 30 115t86.5 103.5t136 74t177.5 27.5q118 0 208.5 -40t142 -120.5t51.5 -201.5v-504q0 -54 9.5 -115t28.5 -105v-16h-193q-14 32 -22 85.5t-8 99.5zM811 656l2 -130
h-187q-79 0 -141 -12.5t-104 -37.5t-64 -62.5t-22 -87.5q0 -51 23 -93t69.5 -66.5t114.5 -24.5q85 0 150 36t103.5 88t41.5 101l79 -89q-7 -42 -38 -93t-82.5 -97.5t-122 -77t-158.5 -30.5q-110 0 -192.5 43t-128 115.5t-45.5 162.5q0 87 34 153.5t98 111t154 67.5t201 23
h215zM480 1242l194 294h223l-268 -294h-149z" />
    <glyph glyph-name="acircumflex" unicode="&#xe2;" horiz-adv-x="1114" 
d="M779 185v557q0 64 -25.5 111.5t-76.5 73.5t-126 26q-70 0 -122.5 -24t-82 -63t-29.5 -84h-185q0 58 30 115t86.5 103.5t136 74t177.5 27.5q118 0 208.5 -40t142 -120.5t51.5 -201.5v-504q0 -54 9.5 -115t28.5 -105v-16h-193q-14 32 -22 85.5t-8 99.5zM811 656l2 -130
h-187q-79 0 -141 -12.5t-104 -37.5t-64 -62.5t-22 -87.5q0 -51 23 -93t69.5 -66.5t114.5 -24.5q85 0 150 36t103.5 88t41.5 101l79 -89q-7 -42 -38 -93t-82.5 -97.5t-122 -77t-158.5 -30.5q-110 0 -192.5 43t-128 115.5t-45.5 162.5q0 87 34 153.5t98 111t154 67.5t201 23
h215zM638 1536l248 -273v-10h-154l-150 169l-149 -169h-152v11l245 272h112z" />
    <glyph glyph-name="atilde" unicode="&#xe3;" horiz-adv-x="1114" 
d="M779 185v557q0 64 -25.5 111.5t-76.5 73.5t-126 26q-70 0 -122.5 -24t-82 -63t-29.5 -84h-185q0 58 30 115t86.5 103.5t136 74t177.5 27.5q118 0 208.5 -40t142 -120.5t51.5 -201.5v-504q0 -54 9.5 -115t28.5 -105v-16h-193q-14 32 -22 85.5t-8 99.5zM811 656l2 -130
h-187q-79 0 -141 -12.5t-104 -37.5t-64 -62.5t-22 -87.5q0 -51 23 -93t69.5 -66.5t114.5 -24.5q85 0 150 36t103.5 88t41.5 101l79 -89q-7 -42 -38 -93t-82.5 -97.5t-122 -77t-158.5 -30.5q-110 0 -192.5 43t-128 115.5t-45.5 162.5q0 87 34 153.5t98 111t154 67.5t201 23
h215zM812 1516l125 -11q0 -73 -29 -128t-77.5 -85t-109.5 -30q-51 0 -84 14.5t-59 33t-54.5 33t-70.5 14.5t-70.5 -32t-28.5 -79l-125 6q0 73 28.5 128.5t77.5 87t109 31.5q43 0 75.5 -14.5t61.5 -33t60 -33t71 -14.5q42 0 71 32.5t29 79.5z" />
    <glyph glyph-name="adieresis" unicode="&#xe4;" horiz-adv-x="1114" 
d="M779 185v557q0 64 -25.5 111.5t-76.5 73.5t-126 26q-70 0 -122.5 -24t-82 -63t-29.5 -84h-185q0 58 30 115t86.5 103.5t136 74t177.5 27.5q118 0 208.5 -40t142 -120.5t51.5 -201.5v-504q0 -54 9.5 -115t28.5 -105v-16h-193q-14 32 -22 85.5t-8 99.5zM811 656l2 -130
h-187q-79 0 -141 -12.5t-104 -37.5t-64 -62.5t-22 -87.5q0 -51 23 -93t69.5 -66.5t114.5 -24.5q85 0 150 36t103.5 88t41.5 101l79 -89q-7 -42 -38 -93t-82.5 -97.5t-122 -77t-158.5 -30.5q-110 0 -192.5 43t-128 115.5t-45.5 162.5q0 87 34 153.5t98 111t154 67.5t201 23
h215zM260 1371q0 45 28 76t81 31q54 0 82 -31t28 -76q0 -43 -28 -73.5t-82 -30.5q-53 0 -81 30.5t-28 73.5zM691 1369q0 45 27.5 76t81.5 31q53 0 81.5 -31t28.5 -76q0 -43 -28.5 -73.5t-81.5 -30.5q-54 0 -81.5 30.5t-27.5 73.5z" />
    <glyph glyph-name="aring" unicode="&#xe5;" horiz-adv-x="1114" 
d="M779 185v557q0 64 -25.5 111.5t-76.5 73.5t-126 26q-70 0 -122.5 -24t-82 -63t-29.5 -84h-185q0 58 30 115t86.5 103.5t136 74t177.5 27.5q118 0 208.5 -40t142 -120.5t51.5 -201.5v-504q0 -54 9.5 -115t28.5 -105v-16h-193q-14 32 -22 85.5t-8 99.5zM811 656l2 -130
h-187q-79 0 -141 -12.5t-104 -37.5t-64 -62.5t-22 -87.5q0 -51 23 -93t69.5 -66.5t114.5 -24.5q85 0 150 36t103.5 88t41.5 101l79 -89q-7 -42 -38 -93t-82.5 -97.5t-122 -77t-158.5 -30.5q-110 0 -192.5 43t-128 115.5t-45.5 162.5q0 87 34 153.5t98 111t154 67.5t201 23
h215zM367 1420q0 58 28.5 105t77 75t109.5 28q91 0 153 -61t62 -147q0 -58 -28.5 -104.5t-77 -73t-109.5 -26.5q-91 0 -153 58t-62 146zM466 1420q0 -44 32.5 -79.5t83.5 -35.5t83.5 34.5t32.5 80.5q0 47 -32.5 82.5t-83.5 35.5t-83.5 -35.5t-32.5 -82.5z" />
    <glyph glyph-name="ae" unicode="&#xe6;" horiz-adv-x="1730" 
d="M749 183v537q0 72 -24.5 123.5t-72.5 79t-117 27.5q-74 0 -129 -26t-85 -69t-30 -95l-184 18q0 70 31 129t87.5 103t135 68t174.5 24q118 0 206.5 -43t138 -128t49.5 -213v-500zM790 636v-140h-261q-87 0 -146 -27.5t-89 -72t-30 -96.5q0 -48 22.5 -86.5t68 -61
t115.5 -22.5q54 0 110.5 20.5t104 53t77 68.5t30.5 67l96 -144q-27 -49 -85.5 -99t-150 -83.5t-218.5 -33.5q-114 0 -193.5 40t-120.5 113.5t-41 171.5q0 79 28.5 140.5t85 104t140.5 65t194 22.5h263zM1263 -21q-123 0 -217 40t-158 112.5t-97 171.5t-33 217v44
q0 119 34.5 217.5t97 170.5t146.5 111.5t183 38.5q108 0 190.5 -33.5t138.5 -97t84.5 -153.5t28.5 -202v-118h-804v142h618v31q0 76 -25 139t-81 101.5t-150 38.5q-69 0 -122 -30t-89.5 -83t-55.5 -123t-19 -150v-44q0 -81 19 -151.5t59 -124t102.5 -83.5t149.5 -30
q119 0 192 36.5t123 70.5l65 -136q-22 -17 -70.5 -46.5t-125.5 -53t-184 -23.5z" />
    <glyph glyph-name="ccedilla" unicode="&#xe7;" horiz-adv-x="1072" 
d="M574 132q66 0 122 27t92 74.5t41 108.5h176q-5 -96 -64.5 -178.5t-155.5 -133t-211 -50.5q-122 0 -212.5 43t-150 118t-89 172.5t-29.5 206.5v42q0 109 29.5 206.5t89 172.5t150 118t212.5 43q127 0 222 -51.5t149.5 -140t59.5 -200.5h-176q-5 67 -37.5 121t-88 86.5
t-129.5 32.5q-85 0 -142.5 -33.5t-91 -90t-48 -125t-14.5 -139.5v-42q0 -71 14 -140t47.5 -125t91 -89.5t143.5 -33.5zM472 -10h133l-12 -53q58 -10 105.5 -48t47.5 -125q0 -47 -19.5 -85.5t-57.5 -66t-94.5 -42.5t-131.5 -15l-7 107q46 0 83.5 10t60 32t22.5 57
q0 33 -17 52t-52.5 28.5t-91.5 13.5z" />
    <glyph glyph-name="egrave" unicode="&#xe8;" horiz-adv-x="1086" 
d="M590 -20q-113 0 -204.5 38.5t-157 108.5t-100.5 166t-35 210v42q0 132 39 235.5t106 175.5t152 109t176 37q116 0 200.5 -40t138.5 -111.5t80 -168t26 -210.5v-83h-808v151h623v14q-4 72 -29.5 140t-80.5 112t-150 44q-63 0 -116 -26.5t-91 -78.5t-59 -127t-21 -173v-42
q0 -77 21.5 -144.5t63 -118.5t101 -80t135.5 -29q98 0 166 40t119 107l112 -89q-35 -53 -89 -101t-132.5 -78t-185.5 -30zM477 1536l193 -294h-159l-258 294h224z" />
    <glyph glyph-name="eacute" unicode="&#xe9;" horiz-adv-x="1086" 
d="M590 -20q-113 0 -204.5 38.5t-157 108.5t-100.5 166t-35 210v42q0 132 39 235.5t106 175.5t152 109t176 37q116 0 200.5 -40t138.5 -111.5t80 -168t26 -210.5v-83h-808v151h623v14q-4 72 -29.5 140t-80.5 112t-150 44q-63 0 -116 -26.5t-91 -78.5t-59 -127t-21 -173v-42
q0 -77 21.5 -144.5t63 -118.5t101 -80t135.5 -29q98 0 166 40t119 107l112 -89q-35 -53 -89 -101t-132.5 -78t-185.5 -30zM463 1242l194 294h223l-268 -294h-149z" />
    <glyph glyph-name="ecircumflex" unicode="&#xea;" horiz-adv-x="1086" 
d="M590 -20q-113 0 -204.5 38.5t-157 108.5t-100.5 166t-35 210v42q0 132 39 235.5t106 175.5t152 109t176 37q116 0 200.5 -40t138.5 -111.5t80 -168t26 -210.5v-83h-808v151h623v14q-4 72 -29.5 140t-80.5 112t-150 44q-63 0 -116 -26.5t-91 -78.5t-59 -127t-21 -173v-42
q0 -77 21.5 -144.5t63 -118.5t101 -80t135.5 -29q98 0 166 40t119 107l112 -89q-35 -53 -89 -101t-132.5 -78t-185.5 -30zM621 1536l248 -273v-10h-154l-150 169l-149 -169h-152v11l245 272h112z" />
    <glyph glyph-name="edieresis" unicode="&#xeb;" horiz-adv-x="1086" 
d="M590 -20q-113 0 -204.5 38.5t-157 108.5t-100.5 166t-35 210v42q0 132 39 235.5t106 175.5t152 109t176 37q116 0 200.5 -40t138.5 -111.5t80 -168t26 -210.5v-83h-808v151h623v14q-4 72 -29.5 140t-80.5 112t-150 44q-63 0 -116 -26.5t-91 -78.5t-59 -127t-21 -173v-42
q0 -77 21.5 -144.5t63 -118.5t101 -80t135.5 -29q98 0 166 40t119 107l112 -89q-35 -53 -89 -101t-132.5 -78t-185.5 -30zM243 1371q0 45 28 76t81 31q54 0 82 -31t28 -76q0 -43 -28 -73.5t-82 -30.5q-53 0 -81 30.5t-28 73.5zM674 1369q0 45 27.5 76t81.5 31q53 0 81.5 -31
t28.5 -76q0 -43 -28.5 -73.5t-81.5 -30.5q-54 0 -81.5 30.5t-27.5 73.5z" />
    <glyph glyph-name="igrave" unicode="&#xec;" horiz-adv-x="507" 
d="M341 1082v-1082h-185v1082h185zM164 1534l193 -294h-159l-258 294h224z" />
    <glyph glyph-name="iacute" unicode="&#xed;" horiz-adv-x="507" 
d="M341 1082v-1082h-185v1082h185zM150 1240l194 294h223l-268 -294h-149z" />
    <glyph glyph-name="icircumflex" unicode="&#xee;" horiz-adv-x="507" 
d="M341 1082v-1082h-185v1082h185zM308 1534l248 -273v-10h-154l-150 169l-149 -169h-152v11l245 272h112z" />
    <glyph glyph-name="idieresis" unicode="&#xef;" horiz-adv-x="507" 
d="M341 1082v-1082h-185v1082h185zM-70 1369q0 45 28 76t81 31q54 0 82 -31t28 -76q0 -43 -28 -73.5t-82 -30.5q-53 0 -81 30.5t-28 73.5zM361 1367q0 45 27.5 76t81.5 31q53 0 81.5 -31t28.5 -76q0 -43 -28.5 -73.5t-81.5 -30.5q-54 0 -81.5 30.5t-27.5 73.5z" />
    <glyph glyph-name="eth" unicode="&#xf0;" horiz-adv-x="1201" 
d="M255 1421l57 160q169 -38 308 -120t240 -203.5t155.5 -278.5t54.5 -346v-98q0 -123 -34.5 -225t-97.5 -176t-148.5 -114t-187.5 -40q-105 0 -192.5 37.5t-151 104.5t-98 155.5t-34.5 190.5q0 116 33.5 209.5t94 161t142 103.5t178.5 36q113 0 203.5 -53.5t143.5 -137
t53 -174.5l-69 1q0 33 -18 70t-53.5 69.5t-89.5 52.5t-126 20q-73 0 -130 -25t-96 -71.5t-59.5 -112.5t-20.5 -149q0 -62 19.5 -121.5t57 -108t92 -77.5t125.5 -29q65 0 116 30.5t87.5 85t55.5 128t19 159.5v100q0 176 -49.5 308t-137 227t-201 156.5t-241.5 94.5zM988 1417
l-537 -366l-73 100l537 365z" />
    <glyph glyph-name="ntilde" unicode="&#xf1;" horiz-adv-x="1131" 
d="M326 851v-851h-185v1082h175zM282 582l-77 3q1 111 33 205.5t90 164.5t138.5 108.5t178.5 38.5q80 0 144 -21.5t109.5 -68.5t69.5 -121.5t24 -181.5v-709h-186v711q0 85 -25 136.5t-73 75t-118 23.5q-69 0 -125.5 -29t-97 -80t-63 -116.5t-22.5 -138.5zM803 1516l125 -11
q0 -73 -29 -128t-77.5 -85t-109.5 -30q-51 0 -84 14.5t-59 33t-54.5 33t-70.5 14.5t-70.5 -32t-28.5 -79l-125 6q0 73 28.5 128.5t77.5 87t109 31.5q43 0 75.5 -14.5t61.5 -33t60 -33t71 -14.5q42 0 71 32.5t29 79.5z" />
    <glyph glyph-name="ograve" unicode="&#xf2;" horiz-adv-x="1168" 
d="M92 529v23q0 117 34 217.5t98 175t155 116t204 41.5q114 0 205.5 -41.5t156 -116t98.5 -175t34 -217.5v-23q0 -117 -34 -217t-98.5 -174.5t-155 -116t-204.5 -41.5t-205 41.5t-155.5 116t-98.5 174.5t-34 217zM277 552v-23q0 -81 19 -152.5t57.5 -126.5t96.5 -86.5
t135 -31.5q76 0 133.5 31.5t95.5 86.5t57.5 126.5t19.5 152.5v23q0 80 -19.5 151.5t-58 127t-96 87.5t-134.5 32q-76 0 -133.5 -32t-96 -87.5t-57.5 -127t-19 -151.5zM487 1536l193 -294h-159l-258 294h224z" />
    <glyph glyph-name="oacute" unicode="&#xf3;" horiz-adv-x="1168" 
d="M92 529v23q0 117 34 217.5t98 175t155 116t204 41.5q114 0 205.5 -41.5t156 -116t98.5 -175t34 -217.5v-23q0 -117 -34 -217t-98.5 -174.5t-155 -116t-204.5 -41.5t-205 41.5t-155.5 116t-98.5 174.5t-34 217zM277 552v-23q0 -81 19 -152.5t57.5 -126.5t96.5 -86.5
t135 -31.5q76 0 133.5 31.5t95.5 86.5t57.5 126.5t19.5 152.5v23q0 80 -19.5 151.5t-58 127t-96 87.5t-134.5 32q-76 0 -133.5 -32t-96 -87.5t-57.5 -127t-19 -151.5zM473 1242l194 294h223l-268 -294h-149z" />
    <glyph glyph-name="ocircumflex" unicode="&#xf4;" horiz-adv-x="1168" 
d="M92 529v23q0 117 34 217.5t98 175t155 116t204 41.5q114 0 205.5 -41.5t156 -116t98.5 -175t34 -217.5v-23q0 -117 -34 -217t-98.5 -174.5t-155 -116t-204.5 -41.5t-205 41.5t-155.5 116t-98.5 174.5t-34 217zM277 552v-23q0 -81 19 -152.5t57.5 -126.5t96.5 -86.5
t135 -31.5q76 0 133.5 31.5t95.5 86.5t57.5 126.5t19.5 152.5v23q0 80 -19.5 151.5t-58 127t-96 87.5t-134.5 32q-76 0 -133.5 -32t-96 -87.5t-57.5 -127t-19 -151.5zM631 1536l248 -273v-10h-154l-150 169l-149 -169h-152v11l245 272h112z" />
    <glyph glyph-name="otilde" unicode="&#xf5;" horiz-adv-x="1168" 
d="M92 529v23q0 117 34 217.5t98 175t155 116t204 41.5q114 0 205.5 -41.5t156 -116t98.5 -175t34 -217.5v-23q0 -117 -34 -217t-98.5 -174.5t-155 -116t-204.5 -41.5t-205 41.5t-155.5 116t-98.5 174.5t-34 217zM277 552v-23q0 -81 19 -152.5t57.5 -126.5t96.5 -86.5
t135 -31.5q76 0 133.5 31.5t95.5 86.5t57.5 126.5t19.5 152.5v23q0 80 -19.5 151.5t-58 127t-96 87.5t-134.5 32q-76 0 -133.5 -32t-96 -87.5t-57.5 -127t-19 -151.5zM805 1516l125 -11q0 -73 -29 -128t-77.5 -85t-109.5 -30q-51 0 -84 14.5t-59 33t-54.5 33t-70.5 14.5
t-70.5 -32t-28.5 -79l-125 6q0 73 28.5 128.5t77.5 87t109 31.5q43 0 75.5 -14.5t61.5 -33t60 -33t71 -14.5q42 0 71 32.5t29 79.5z" />
    <glyph glyph-name="odieresis" unicode="&#xf6;" horiz-adv-x="1168" 
d="M92 529v23q0 117 34 217.5t98 175t155 116t204 41.5q114 0 205.5 -41.5t156 -116t98.5 -175t34 -217.5v-23q0 -117 -34 -217t-98.5 -174.5t-155 -116t-204.5 -41.5t-205 41.5t-155.5 116t-98.5 174.5t-34 217zM277 552v-23q0 -81 19 -152.5t57.5 -126.5t96.5 -86.5
t135 -31.5q76 0 133.5 31.5t95.5 86.5t57.5 126.5t19.5 152.5v23q0 80 -19.5 151.5t-58 127t-96 87.5t-134.5 32q-76 0 -133.5 -32t-96 -87.5t-57.5 -127t-19 -151.5zM253 1371q0 45 28 76t81 31q54 0 82 -31t28 -76q0 -43 -28 -73.5t-82 -30.5q-53 0 -81 30.5t-28 73.5z
M684 1369q0 45 27.5 76t81.5 31q53 0 81.5 -31t28.5 -76q0 -43 -28.5 -73.5t-81.5 -30.5q-54 0 -81.5 30.5t-27.5 73.5z" />
    <glyph glyph-name="divide" unicode="&#xf7;" horiz-adv-x="1170" 
d="M1069 784v-184h-998v184h998zM462 1098q0 48 29 80t85 32t85.5 -32t29.5 -80q0 -46 -29.5 -77.5t-85.5 -31.5t-85 31.5t-29 77.5zM462 282q0 47 29 79.5t85 32.5t85.5 -32.5t29.5 -79.5q0 -46 -29.5 -78t-85.5 -32t-85 32t-29 78z" />
    <glyph glyph-name="oslash" unicode="&#xf8;" horiz-adv-x="1161" 
d="M983 1209l-663 -1344h-123l663 1344h123zM92 529v23q0 117 34 217.5t98 175t155 116t204 41.5q114 0 205.5 -41.5t155.5 -116t98 -175t34 -217.5v-23q0 -117 -34 -217t-98 -174.5t-154.5 -116t-204.5 -41.5t-205 41.5t-155.5 116t-98.5 174.5t-34 217zM277 552v-23
q0 -81 19 -152.5t57.5 -126.5t96.5 -86.5t135 -31.5q76 0 133.5 31.5t95.5 86.5t57.5 126.5t19.5 152.5v23q0 80 -19.5 151.5t-58 127t-96 87.5t-134.5 32q-76 0 -133.5 -32t-96 -87.5t-57.5 -127t-19 -151.5z" />
    <glyph glyph-name="ugrave" unicode="&#xf9;" horiz-adv-x="1129" 
d="M803 250v832h186v-1082h-177zM838 478l77 2q0 -108 -22.5 -199.5t-72.5 -158.5t-131 -104.5t-197 -37.5q-79 0 -144.5 23t-112.5 71t-72.5 125t-25.5 185v698h185v-700q0 -73 16.5 -120.5t45 -75t64 -38.5t73.5 -11q118 0 187 45.5t99.5 123t30.5 172.5zM479 1536
l193 -294h-159l-258 294h224z" />
    <glyph glyph-name="uacute" unicode="&#xfa;" horiz-adv-x="1129" 
d="M803 250v832h186v-1082h-177zM838 478l77 2q0 -108 -22.5 -199.5t-72.5 -158.5t-131 -104.5t-197 -37.5q-79 0 -144.5 23t-112.5 71t-72.5 125t-25.5 185v698h185v-700q0 -73 16.5 -120.5t45 -75t64 -38.5t73.5 -11q118 0 187 45.5t99.5 123t30.5 172.5zM465 1242
l194 294h223l-268 -294h-149z" />
    <glyph glyph-name="ucircumflex" unicode="&#xfb;" horiz-adv-x="1129" 
d="M803 250v832h186v-1082h-177zM838 478l77 2q0 -108 -22.5 -199.5t-72.5 -158.5t-131 -104.5t-197 -37.5q-79 0 -144.5 23t-112.5 71t-72.5 125t-25.5 185v698h185v-700q0 -73 16.5 -120.5t45 -75t64 -38.5t73.5 -11q118 0 187 45.5t99.5 123t30.5 172.5zM623 1536
l248 -273v-10h-154l-150 169l-149 -169h-152v11l245 272h112z" />
    <glyph glyph-name="udieresis" unicode="&#xfc;" horiz-adv-x="1129" 
d="M803 250v832h186v-1082h-177zM838 478l77 2q0 -108 -22.5 -199.5t-72.5 -158.5t-131 -104.5t-197 -37.5q-79 0 -144.5 23t-112.5 71t-72.5 125t-25.5 185v698h185v-700q0 -73 16.5 -120.5t45 -75t64 -38.5t73.5 -11q118 0 187 45.5t99.5 123t30.5 172.5zM245 1371
q0 45 28 76t81 31q54 0 82 -31t28 -76q0 -43 -28 -73.5t-82 -30.5q-53 0 -81 30.5t-28 73.5zM676 1369q0 45 27.5 76t81.5 31q53 0 81.5 -31t28.5 -76q0 -43 -28.5 -73.5t-81.5 -30.5q-54 0 -81.5 30.5t-27.5 73.5z" />
    <glyph glyph-name="yacute" unicode="&#xfd;" horiz-adv-x="969" 
d="M445 112l301 970h198l-434 -1249q-15 -40 -39.5 -86.5t-62.5 -88.5t-91.5 -68.5t-127.5 -26.5q-22 0 -56 6t-48 10l-1 150q8 -1 25.5 -2.5t24.5 -1.5q63 0 107 16.5t74.5 55t52.5 105.5zM224 1082l281 -840l48 -195l-133 -68l-398 1103h202zM406 1242l194 294h223
l-268 -294h-149z" />
    <glyph glyph-name="thorn" unicode="&#xfe;" horiz-adv-x="1180" 
d="M335 1536v-1952h-186v1952h186zM1064 550v-21q0 -118 -28 -218.5t-81.5 -174.5t-131.5 -115t-179 -41q-103 0 -182 34t-134 99t-87.5 156t-44.5 205v112q12 120 45 215t87.5 162.5t132.5 103t180 35.5t181 -39.5t133 -112.5t81.5 -174.5t27.5 -225.5zM878 529v21
q0 81 -17 152.5t-52.5 126t-90.5 86t-131 31.5q-70 0 -121.5 -24t-87.5 -64.5t-58.5 -92t-33.5 -106.5v-259q15 -53 38.5 -101t59 -85.5t86 -59.5t119.5 -22q75 0 129.5 31.5t90 86.5t52.5 126.5t17 152.5z" />
    <glyph glyph-name="ydieresis" unicode="&#xff;" horiz-adv-x="969" 
d="M445 112l301 970h198l-434 -1249q-15 -40 -39.5 -86.5t-62.5 -88.5t-91.5 -68.5t-127.5 -26.5q-22 0 -56 6t-48 10l-1 150q8 -1 25.5 -2.5t24.5 -1.5q63 0 107 16.5t74.5 55t52.5 105.5zM224 1082l281 -840l48 -195l-133 -68l-398 1103h202zM186 1371q0 45 28 76t81 31
q54 0 82 -31t28 -76q0 -43 -28 -73.5t-82 -30.5q-53 0 -81 30.5t-28 73.5zM617 1369q0 45 27.5 76t81.5 31q53 0 81.5 -31t28.5 -76q0 -43 -28.5 -73.5t-81.5 -30.5q-54 0 -81.5 30.5t-27.5 73.5z" />
    <glyph glyph-name="Amacron" unicode="&#x100;" horiz-adv-x="1336" 
d="M708 1327l-482 -1327h-197l555 1456h127zM1112 0l-483 1327l-3 129h127l557 -1456h-198zM1087 539v-158h-818v158h818zM1013 1764v-142h-671v142h671z" />
    <glyph glyph-name="amacron" unicode="&#x101;" horiz-adv-x="1114" 
d="M779 185v557q0 64 -25.5 111.5t-76.5 73.5t-126 26q-70 0 -122.5 -24t-82 -63t-29.5 -84h-185q0 58 30 115t86.5 103.5t136 74t177.5 27.5q118 0 208.5 -40t142 -120.5t51.5 -201.5v-504q0 -54 9.5 -115t28.5 -105v-16h-193q-14 32 -22 85.5t-8 99.5zM811 656l2 -130
h-187q-79 0 -141 -12.5t-104 -37.5t-64 -62.5t-22 -87.5q0 -51 23 -93t69.5 -66.5t114.5 -24.5q85 0 150 36t103.5 88t41.5 101l79 -89q-7 -42 -38 -93t-82.5 -97.5t-122 -77t-158.5 -30.5q-110 0 -192.5 43t-128 115.5t-45.5 162.5q0 87 34 153.5t98 111t154 67.5t201 23
h215zM923 1453v-142h-671v142h671z" />
    <glyph glyph-name="Abreve" unicode="&#x102;" horiz-adv-x="1336" 
d="M708 1327l-482 -1327h-197l555 1456h127zM1112 0l-483 1327l-3 129h127l557 -1456h-198zM1087 539v-158h-818v158h818zM821 1806h150q0 -78 -36 -138.5t-103 -94.5t-159 -34q-139 0 -219.5 74.5t-80.5 192.5h150q0 -59 34 -104t116 -45q80 0 114 45t34 104z" />
    <glyph glyph-name="abreve" unicode="&#x103;" horiz-adv-x="1114" 
d="M779 185v557q0 64 -25.5 111.5t-76.5 73.5t-126 26q-70 0 -122.5 -24t-82 -63t-29.5 -84h-185q0 58 30 115t86.5 103.5t136 74t177.5 27.5q118 0 208.5 -40t142 -120.5t51.5 -201.5v-504q0 -54 9.5 -115t28.5 -105v-16h-193q-14 32 -22 85.5t-8 99.5zM811 656l2 -130
h-187q-79 0 -141 -12.5t-104 -37.5t-64 -62.5t-22 -87.5q0 -51 23 -93t69.5 -66.5t114.5 -24.5q85 0 150 36t103.5 88t41.5 101l79 -89q-7 -42 -38 -93t-82.5 -97.5t-122 -77t-158.5 -30.5q-110 0 -192.5 43t-128 115.5t-45.5 162.5q0 87 34 153.5t98 111t154 67.5t201 23
h215zM731 1495h150q0 -78 -36 -138.5t-103 -94.5t-159 -34q-139 0 -219.5 74.5t-80.5 192.5h150q0 -59 34 -104t116 -45q80 0 114 45t34 104z" />
    <glyph glyph-name="Aogonek" unicode="&#x104;" horiz-adv-x="1336" 
d="M708 1327l-482 -1327h-197l555 1456h127zM1112 0l-483 1327l-3 129h127l557 -1456h-198zM1087 539v-158h-818v158h818zM1198 57l74 -57q-43 -32 -82 -66.5t-64 -73t-25 -82.5q0 -33 17.5 -53t60.5 -20q33 0 59 9.5t41 17.5l14 -122q-25 -15 -63.5 -29.5t-97.5 -14.5
q-81 0 -136.5 48.5t-55.5 142.5q0 54 26.5 107t83.5 102t148 91z" />
    <glyph glyph-name="aogonek" unicode="&#x105;" horiz-adv-x="1114" 
d="M779 185v557q0 64 -25.5 111.5t-76.5 73.5t-126 26q-70 0 -122.5 -24t-82 -63t-29.5 -84h-185q0 58 30 115t86.5 103.5t136 74t177.5 27.5q118 0 208.5 -40t142 -120.5t51.5 -201.5v-504q0 -54 9.5 -115t28.5 -105v-16h-193q-14 32 -22 85.5t-8 99.5zM811 656l2 -130
h-187q-79 0 -141 -12.5t-104 -37.5t-64 -62.5t-22 -87.5q0 -51 23 -93t69.5 -66.5t114.5 -24.5q85 0 150 36t103.5 88t41.5 101l79 -89q-7 -42 -38 -93t-82.5 -97.5t-122 -77t-158.5 -30.5q-110 0 -192.5 43t-128 115.5t-45.5 162.5q0 87 34 153.5t98 111t154 67.5t201 23
h215zM896 57l74 -57q-43 -32 -82 -66.5t-64 -73t-25 -82.5q0 -33 17.5 -53t60.5 -20q33 0 59 9.5t41 17.5l14 -122q-25 -15 -63.5 -29.5t-97.5 -14.5q-81 0 -136.5 48.5t-55.5 142.5q0 54 26.5 107t83.5 102t148 91z" />
    <glyph glyph-name="Cacute" unicode="&#x106;" horiz-adv-x="1333" 
d="M1048 463h192q-15 -138 -79 -247t-181 -172.5t-292 -63.5q-128 0 -232.5 48t-179.5 136.5t-115.5 213t-40.5 277.5v145q0 153 40.5 277.5t117 213.5t184.5 137t243 48q165 0 279 -62t177.5 -171.5t78.5 -253.5h-192q-14 102 -52 175.5t-108 113.5t-183 40
q-97 0 -170.5 -37t-123 -105t-74.5 -163t-25 -211v-147q0 -107 22.5 -201t68.5 -165t117 -111.5t168 -40.5q123 0 196 39t110.5 112t53.5 175zM578 1585l194 294h223l-268 -294h-149z" />
    <glyph glyph-name="cacute" unicode="&#x107;" horiz-adv-x="1072" 
d="M574 132q66 0 122 27t92 74.5t41 108.5h176q-5 -96 -64.5 -178.5t-155.5 -133t-211 -50.5q-122 0 -212.5 43t-150 118t-89 172.5t-29.5 206.5v42q0 109 29.5 206.5t89 172.5t150 118t212.5 43q127 0 222 -51.5t149.5 -140t59.5 -200.5h-176q-5 67 -37.5 121t-88 86.5
t-129.5 32.5q-85 0 -142.5 -33.5t-91 -90t-48 -125t-14.5 -139.5v-42q0 -71 14 -140t47.5 -125t91 -89.5t143.5 -33.5zM431 1242l194 294h223l-268 -294h-149z" />
    <glyph glyph-name="Ccircumflex" unicode="&#x108;" horiz-adv-x="1333" 
d="M1048 463h192q-15 -138 -79 -247t-181 -172.5t-292 -63.5q-128 0 -232.5 48t-179.5 136.5t-115.5 213t-40.5 277.5v145q0 153 40.5 277.5t117 213.5t184.5 137t243 48q165 0 279 -62t177.5 -171.5t78.5 -253.5h-192q-14 102 -52 175.5t-108 113.5t-183 40
q-97 0 -170.5 -37t-123 -105t-74.5 -163t-25 -211v-147q0 -107 22.5 -201t68.5 -165t117 -111.5t168 -40.5q123 0 196 39t110.5 112t53.5 175zM736 1879l248 -273v-10h-154l-150 169l-149 -169h-152v11l245 272h112z" />
    <glyph glyph-name="ccircumflex" unicode="&#x109;" horiz-adv-x="1072" 
d="M574 132q66 0 122 27t92 74.5t41 108.5h176q-5 -96 -64.5 -178.5t-155.5 -133t-211 -50.5q-122 0 -212.5 43t-150 118t-89 172.5t-29.5 206.5v42q0 109 29.5 206.5t89 172.5t150 118t212.5 43q127 0 222 -51.5t149.5 -140t59.5 -200.5h-176q-5 67 -37.5 121t-88 86.5
t-129.5 32.5q-85 0 -142.5 -33.5t-91 -90t-48 -125t-14.5 -139.5v-42q0 -71 14 -140t47.5 -125t91 -89.5t143.5 -33.5zM589 1536l248 -273v-10h-154l-150 169l-149 -169h-152v11l245 272h112z" />
    <glyph glyph-name="Cdotaccent" unicode="&#x10a;" horiz-adv-x="1333" 
d="M1048 463h192q-15 -138 -79 -247t-181 -172.5t-292 -63.5q-128 0 -232.5 48t-179.5 136.5t-115.5 213t-40.5 277.5v145q0 153 40.5 277.5t117 213.5t184.5 137t243 48q165 0 279 -62t177.5 -171.5t78.5 -253.5h-192q-14 102 -52 175.5t-108 113.5t-183 40
q-97 0 -170.5 -37t-123 -105t-74.5 -163t-25 -211v-147q0 -107 22.5 -201t68.5 -165t117 -111.5t168 -40.5q123 0 196 39t110.5 112t53.5 175zM571 1711q0 44 27.5 75t81.5 31q53 0 81.5 -31t28.5 -75t-28.5 -74.5t-81.5 -30.5q-54 0 -81.5 30.5t-27.5 74.5z" />
    <glyph glyph-name="cdotaccent" unicode="&#x10b;" horiz-adv-x="1072" 
d="M574 132q66 0 122 27t92 74.5t41 108.5h176q-5 -96 -64.5 -178.5t-155.5 -133t-211 -50.5q-122 0 -212.5 43t-150 118t-89 172.5t-29.5 206.5v42q0 109 29.5 206.5t89 172.5t150 118t212.5 43q127 0 222 -51.5t149.5 -140t59.5 -200.5h-176q-5 67 -37.5 121t-88 86.5
t-129.5 32.5q-85 0 -142.5 -33.5t-91 -90t-48 -125t-14.5 -139.5v-42q0 -71 14 -140t47.5 -125t91 -89.5t143.5 -33.5zM424 1368q0 44 27.5 75t81.5 31q53 0 81.5 -31t28.5 -75t-28.5 -74.5t-81.5 -30.5q-54 0 -81.5 30.5t-27.5 74.5z" />
    <glyph glyph-name="Ccaron" unicode="&#x10c;" horiz-adv-x="1333" 
d="M1048 463h192q-15 -138 -79 -247t-181 -172.5t-292 -63.5q-128 0 -232.5 48t-179.5 136.5t-115.5 213t-40.5 277.5v145q0 153 40.5 277.5t117 213.5t184.5 137t243 48q165 0 279 -62t177.5 -171.5t78.5 -253.5h-192q-14 102 -52 175.5t-108 113.5t-183 40
q-97 0 -170.5 -37t-123 -105t-74.5 -163t-25 -211v-147q0 -107 22.5 -201t68.5 -165t117 -111.5t168 -40.5q123 0 196 39t110.5 112t53.5 175zM528 1878l151 -170l151 170h160v-10l-254 -274h-114l-250 274v10h156z" />
    <glyph glyph-name="ccaron" unicode="&#x10d;" horiz-adv-x="1072" 
d="M574 132q66 0 122 27t92 74.5t41 108.5h176q-5 -96 -64.5 -178.5t-155.5 -133t-211 -50.5q-122 0 -212.5 43t-150 118t-89 172.5t-29.5 206.5v42q0 109 29.5 206.5t89 172.5t150 118t212.5 43q127 0 222 -51.5t149.5 -140t59.5 -200.5h-176q-5 67 -37.5 121t-88 86.5
t-129.5 32.5q-85 0 -142.5 -33.5t-91 -90t-48 -125t-14.5 -139.5v-42q0 -71 14 -140t47.5 -125t91 -89.5t143.5 -33.5zM381 1535l151 -170l151 170h160v-10l-254 -274h-114l-250 274v10h156z" />
    <glyph glyph-name="Dcaron" unicode="&#x10e;" horiz-adv-x="1344" 
d="M563 0h-304l2 157h302q156 0 260 65.5t156.5 184t52.5 277.5v89q0 125 -30 222.5t-88 165t-141.5 102.5t-191.5 35h-328v158h328q143 0 261 -47.5t203.5 -137t131.5 -216t46 -284.5v-87q0 -158 -46 -284.5t-132.5 -215.5t-208 -136.5t-273.5 -47.5zM362 1456v-1456h-193
v1456h193zM457 1857l151 -170l151 170h160v-10l-254 -274h-114l-250 274v10h156z" />
    <glyph glyph-name="dcaron" unicode="&#x10f;" horiz-adv-x="1305" 
d="M823 210v1326h186v-1536h-170zM95 529v21q0 124 30.5 225.5t87 174.5t135 112.5t175.5 39.5q102 0 178.5 -35.5t130 -103t84.5 -162.5t43 -215v-92q-11 -119 -42.5 -214t-85 -162t-130.5 -102.5t-180 -35.5q-95 0 -173.5 41t-135 115t-87 174.5t-30.5 218.5zM281 550v-21
q0 -81 16.5 -152t51.5 -125t89 -84.5t129 -30.5q92 0 151.5 39t95.5 103t56 139v241q-12 55 -34.5 106.5t-58 92t-87 64.5t-121.5 24q-76 0 -130.5 -31.5t-89.5 -86t-51.5 -126t-16.5 -152.5zM1324 1538v-79q0 -79 -35.5 -170t-109.5 -152l-105 73q37 57 55.5 117t18.5 130
v81h176z" />
    <glyph glyph-name="Dcroat" unicode="&#x110;" horiz-adv-x="1374" 
d="M593 0h-304l2 157h302q156 0 260 65.5t156.5 184t52.5 277.5v89q0 125 -30 222.5t-88 165t-141.5 102.5t-191.5 35h-328v158h328q143 0 261 -47.5t203.5 -137t131.5 -216t46 -284.5v-87q0 -158 -46 -284.5t-132.5 -215.5t-208 -136.5t-273.5 -47.5zM392 1456v-1456h-193
v1456h193zM674 817v-152h-637v152h637z" />
    <glyph glyph-name="dcroat" unicode="&#x111;" horiz-adv-x="1224" 
d="M823 210v1326h186v-1536h-170zM95 529v21q0 124 30.5 225.5t87 174.5t135 112.5t175.5 39.5q102 0 178.5 -35.5t130 -103t84.5 -162.5t43 -215v-92q-11 -119 -42.5 -214t-85 -162t-130.5 -102.5t-180 -35.5q-95 0 -173.5 41t-135 115t-87 174.5t-30.5 218.5zM281 550v-21
q0 -81 16.5 -152t51.5 -125t89 -84.5t129 -30.5q92 0 151.5 39t95.5 103t56 139v241q-12 55 -34.5 106.5t-58 92t-87 64.5t-121.5 24q-76 0 -130.5 -31.5t-89.5 -86t-51.5 -126t-16.5 -152.5zM1197 1385v-152h-637v152h637z" />
    <glyph glyph-name="Emacron" unicode="&#x112;" horiz-adv-x="1164" 
d="M1094 157v-157h-771v157h771zM362 1456v-1456h-193v1456h193zM992 830v-157h-669v157h669zM1084 1456v-158h-761v158h761zM960 1775v-142h-671v142h671z" />
    <glyph glyph-name="emacron" unicode="&#x113;" horiz-adv-x="1086" 
d="M590 -20q-113 0 -204.5 38.5t-157 108.5t-100.5 166t-35 210v42q0 132 39 235.5t106 175.5t152 109t176 37q116 0 200.5 -40t138.5 -111.5t80 -168t26 -210.5v-83h-808v151h623v14q-4 72 -29.5 140t-80.5 112t-150 44q-63 0 -116 -26.5t-91 -78.5t-59 -127t-21 -173v-42
q0 -77 21.5 -144.5t63 -118.5t101 -80t135.5 -29q98 0 166 40t119 107l112 -89q-35 -53 -89 -101t-132.5 -78t-185.5 -30zM906 1453v-142h-671v142h671z" />
    <glyph glyph-name="Ebreve" unicode="&#x114;" horiz-adv-x="1164" 
d="M1094 157v-157h-771v157h771zM362 1456v-1456h-193v1456h193zM992 830v-157h-669v157h669zM1084 1456v-158h-761v158h761zM768 1817h150q0 -78 -36 -138.5t-103 -94.5t-159 -34q-139 0 -219.5 74.5t-80.5 192.5h150q0 -59 34 -104t116 -45q80 0 114 45t34 104z" />
    <glyph glyph-name="ebreve" unicode="&#x115;" horiz-adv-x="1086" 
d="M590 -20q-113 0 -204.5 38.5t-157 108.5t-100.5 166t-35 210v42q0 132 39 235.5t106 175.5t152 109t176 37q116 0 200.5 -40t138.5 -111.5t80 -168t26 -210.5v-83h-808v151h623v14q-4 72 -29.5 140t-80.5 112t-150 44q-63 0 -116 -26.5t-91 -78.5t-59 -127t-21 -173v-42
q0 -77 21.5 -144.5t63 -118.5t101 -80t135.5 -29q98 0 166 40t119 107l112 -89q-35 -53 -89 -101t-132.5 -78t-185.5 -30zM714 1495h150q0 -78 -36 -138.5t-103 -94.5t-159 -34q-139 0 -219.5 74.5t-80.5 192.5h150q0 -59 34 -104t116 -45q80 0 114 45t34 104z" />
    <glyph glyph-name="Edotaccent" unicode="&#x116;" horiz-adv-x="1164" 
d="M1094 157v-157h-771v157h771zM362 1456v-1456h-193v1456h193zM992 830v-157h-669v157h669zM1084 1456v-158h-761v158h761zM510 1690q0 44 27.5 75t81.5 31q53 0 81.5 -31t28.5 -75t-28.5 -74.5t-81.5 -30.5q-54 0 -81.5 30.5t-27.5 74.5z" />
    <glyph glyph-name="edotaccent" unicode="&#x117;" horiz-adv-x="1086" 
d="M590 -20q-113 0 -204.5 38.5t-157 108.5t-100.5 166t-35 210v42q0 132 39 235.5t106 175.5t152 109t176 37q116 0 200.5 -40t138.5 -111.5t80 -168t26 -210.5v-83h-808v151h623v14q-4 72 -29.5 140t-80.5 112t-150 44q-63 0 -116 -26.5t-91 -78.5t-59 -127t-21 -173v-42
q0 -77 21.5 -144.5t63 -118.5t101 -80t135.5 -29q98 0 166 40t119 107l112 -89q-35 -53 -89 -101t-132.5 -78t-185.5 -30zM456 1368q0 44 27.5 75t81.5 31q53 0 81.5 -31t28.5 -75t-28.5 -74.5t-81.5 -30.5q-54 0 -81.5 30.5t-27.5 74.5z" />
    <glyph glyph-name="Eogonek" unicode="&#x118;" horiz-adv-x="1164" 
d="M1094 157v-157h-771v157h771zM362 1456v-1456h-193v1456h193zM992 830v-157h-669v157h669zM1084 1456v-158h-761v158h761zM948 57l74 -57q-43 -32 -82 -66.5t-64 -73t-25 -82.5q0 -33 17.5 -53t60.5 -20q33 0 59 9.5t41 17.5l14 -122q-25 -15 -63.5 -29.5t-97.5 -14.5
q-81 0 -136.5 48.5t-55.5 142.5q0 54 26.5 107t83.5 102t148 91z" />
    <glyph glyph-name="eogonek" unicode="&#x119;" horiz-adv-x="1086" 
d="M590 -20q-113 0 -204.5 38.5t-157 108.5t-100.5 166t-35 210v42q0 132 39 235.5t106 175.5t152 109t176 37q116 0 200.5 -40t138.5 -111.5t80 -168t26 -210.5v-83h-808v151h623v14q-4 72 -29.5 140t-80.5 112t-150 44q-63 0 -116 -26.5t-91 -78.5t-59 -127t-21 -173v-42
q0 -77 21.5 -144.5t63 -118.5t101 -80t135.5 -29q98 0 166 40t119 107l112 -89q-35 -53 -89 -101t-132.5 -78t-185.5 -30zM738 83l74 -57q-43 -32 -82 -66.5t-64 -73t-25 -82.5q0 -33 17.5 -53t60.5 -20q33 0 59 9.5t41 17.5l14 -122q-25 -15 -63.5 -29.5t-97.5 -14.5
q-81 0 -136.5 48.5t-55.5 142.5q0 54 26.5 107t83.5 102t148 91z" />
    <glyph glyph-name="Ecaron" unicode="&#x11a;" horiz-adv-x="1164" 
d="M1094 157v-157h-771v157h771zM362 1456v-1456h-193v1456h193zM992 830v-157h-669v157h669zM1084 1456v-158h-761v158h761zM467 1857l151 -170l151 170h160v-10l-254 -274h-114l-250 274v10h156z" />
    <glyph glyph-name="ecaron" unicode="&#x11b;" horiz-adv-x="1086" 
d="M590 -20q-113 0 -204.5 38.5t-157 108.5t-100.5 166t-35 210v42q0 132 39 235.5t106 175.5t152 109t176 37q116 0 200.5 -40t138.5 -111.5t80 -168t26 -210.5v-83h-808v151h623v14q-4 72 -29.5 140t-80.5 112t-150 44q-63 0 -116 -26.5t-91 -78.5t-59 -127t-21 -173v-42
q0 -77 21.5 -144.5t63 -118.5t101 -80t135.5 -29q98 0 166 40t119 107l112 -89q-35 -53 -89 -101t-132.5 -78t-185.5 -30zM413 1535l151 -170l151 170h160v-10l-254 -274h-114l-250 274v10h156z" />
    <glyph glyph-name="Gcircumflex" unicode="&#x11c;" horiz-adv-x="1395" 
d="M1245 725v-533q-27 -40 -86 -89.5t-162.5 -86t-266.5 -36.5q-133 0 -244.5 46.5t-193 136t-126 218t-44.5 291.5v113q0 163 38.5 291t113.5 217.5t184 136t250 46.5q167 0 279.5 -57.5t176 -158.5t81.5 -230h-193q-13 79 -51.5 144t-109.5 104.5t-183 39.5
q-101 0 -175 -37t-122 -106t-71.5 -167t-23.5 -221v-115q0 -126 29.5 -225t84.5 -168.5t131.5 -105.5t169.5 -36q103 0 167 17.5t100 42t55 46.5v326h-337v156h529zM728 1879l248 -273v-10h-154l-150 169l-149 -169h-152v11l245 272h112z" />
    <glyph glyph-name="gcircumflex" unicode="&#x11d;" horiz-adv-x="1150" 
d="M842 1082h168v-1059q0 -143 -58 -244t-161.5 -153.5t-238.5 -52.5q-56 0 -131.5 17.5t-148 59t-121.5 111.5l97 110q68 -82 142.5 -114t147.5 -32q88 0 152 33t99.5 97.5t35.5 158.5v830zM97 529v21q0 124 29.5 225.5t85 174.5t134.5 112.5t178 39.5q102 0 178.5 -35.5
t130 -103t84.5 -162.5t43 -215v-92q-11 -119 -42.5 -214t-85 -162t-130.5 -102.5t-180 -35.5q-97 0 -175.5 41t-134.5 115t-85.5 174.5t-29.5 218.5zM282 550v-21q0 -81 16.5 -152t51 -125t88.5 -84.5t129 -30.5q92 0 152 39t95.5 103t55.5 139v241q-11 55 -33.5 106.5
t-58 92t-87.5 64.5t-122 24q-76 0 -130.5 -31.5t-89 -86t-51 -126t-16.5 -152.5zM612 1536l248 -273v-10h-154l-150 169l-149 -169h-152v11l245 272h112z" />
    <glyph glyph-name="Gbreve" unicode="&#x11e;" horiz-adv-x="1395" 
d="M1245 725v-533q-27 -40 -86 -89.5t-162.5 -86t-266.5 -36.5q-133 0 -244.5 46.5t-193 136t-126 218t-44.5 291.5v113q0 163 38.5 291t113.5 217.5t184 136t250 46.5q167 0 279.5 -57.5t176 -158.5t81.5 -230h-193q-13 79 -51.5 144t-109.5 104.5t-183 39.5
q-101 0 -175 -37t-122 -106t-71.5 -167t-23.5 -221v-115q0 -126 29.5 -225t84.5 -168.5t131.5 -105.5t169.5 -36q103 0 167 17.5t100 42t55 46.5v326h-337v156h529zM821 1838h150q0 -78 -36 -138.5t-103 -94.5t-159 -34q-139 0 -219.5 74.5t-80.5 192.5h150q0 -59 34 -104
t116 -45q80 0 114 45t34 104z" />
    <glyph glyph-name="gbreve" unicode="&#x11f;" horiz-adv-x="1150" 
d="M842 1082h168v-1059q0 -143 -58 -244t-161.5 -153.5t-238.5 -52.5q-56 0 -131.5 17.5t-148 59t-121.5 111.5l97 110q68 -82 142.5 -114t147.5 -32q88 0 152 33t99.5 97.5t35.5 158.5v830zM97 529v21q0 124 29.5 225.5t85 174.5t134.5 112.5t178 39.5q102 0 178.5 -35.5
t130 -103t84.5 -162.5t43 -215v-92q-11 -119 -42.5 -214t-85 -162t-130.5 -102.5t-180 -35.5q-97 0 -175.5 41t-134.5 115t-85.5 174.5t-29.5 218.5zM282 550v-21q0 -81 16.5 -152t51 -125t88.5 -84.5t129 -30.5q92 0 152 39t95.5 103t55.5 139v241q-11 55 -33.5 106.5
t-58 92t-87.5 64.5t-122 24q-76 0 -130.5 -31.5t-89 -86t-51 -126t-16.5 -152.5zM705 1495h150q0 -78 -36 -138.5t-103 -94.5t-159 -34q-139 0 -219.5 74.5t-80.5 192.5h150q0 -59 34 -104t116 -45q80 0 114 45t34 104z" />
    <glyph glyph-name="Gdotaccent" unicode="&#x120;" horiz-adv-x="1395" 
d="M1245 725v-533q-27 -40 -86 -89.5t-162.5 -86t-266.5 -36.5q-133 0 -244.5 46.5t-193 136t-126 218t-44.5 291.5v113q0 163 38.5 291t113.5 217.5t184 136t250 46.5q167 0 279.5 -57.5t176 -158.5t81.5 -230h-193q-13 79 -51.5 144t-109.5 104.5t-183 39.5
q-101 0 -175 -37t-122 -106t-71.5 -167t-23.5 -221v-115q0 -126 29.5 -225t84.5 -168.5t131.5 -105.5t169.5 -36q103 0 167 17.5t100 42t55 46.5v326h-337v156h529zM563 1711q0 44 27.5 75t81.5 31q53 0 81.5 -31t28.5 -75t-28.5 -74.5t-81.5 -30.5q-54 0 -81.5 30.5
t-27.5 74.5z" />
    <glyph glyph-name="gdotaccent" unicode="&#x121;" horiz-adv-x="1150" 
d="M842 1082h168v-1059q0 -143 -58 -244t-161.5 -153.5t-238.5 -52.5q-56 0 -131.5 17.5t-148 59t-121.5 111.5l97 110q68 -82 142.5 -114t147.5 -32q88 0 152 33t99.5 97.5t35.5 158.5v830zM97 529v21q0 124 29.5 225.5t85 174.5t134.5 112.5t178 39.5q102 0 178.5 -35.5
t130 -103t84.5 -162.5t43 -215v-92q-11 -119 -42.5 -214t-85 -162t-130.5 -102.5t-180 -35.5q-97 0 -175.5 41t-134.5 115t-85.5 174.5t-29.5 218.5zM282 550v-21q0 -81 16.5 -152t51 -125t88.5 -84.5t129 -30.5q92 0 152 39t95.5 103t55.5 139v241q-11 55 -33.5 106.5
t-58 92t-87.5 64.5t-122 24q-76 0 -130.5 -31.5t-89 -86t-51 -126t-16.5 -152.5zM447 1368q0 44 27.5 75t81.5 31q53 0 81.5 -31t28.5 -75t-28.5 -74.5t-81.5 -30.5q-54 0 -81.5 30.5t-27.5 74.5z" />
    <glyph glyph-name="uni0122" unicode="&#x122;" horiz-adv-x="1395" 
d="M1245 725v-533q-27 -40 -86 -89.5t-162.5 -86t-266.5 -36.5q-133 0 -244.5 46.5t-193 136t-126 218t-44.5 291.5v113q0 163 38.5 291t113.5 217.5t184 136t250 46.5q167 0 279.5 -57.5t176 -158.5t81.5 -230h-193q-13 79 -51.5 144t-109.5 104.5t-183 39.5
q-101 0 -175 -37t-122 -106t-71.5 -167t-23.5 -221v-115q0 -126 29.5 -225t84.5 -168.5t131.5 -105.5t169.5 -36q103 0 167 17.5t100 42t55 46.5v326h-337v156h529zM817 -124v-79q0 -79 -35.5 -170t-109.5 -152l-105 73q37 57 55.5 117t18.5 130v81h176z" />
    <glyph glyph-name="uni0123" unicode="&#x123;" horiz-adv-x="1150" 
d="M842 1082h168v-1059q0 -143 -58 -244t-161.5 -153.5t-238.5 -52.5q-56 0 -131.5 17.5t-148 59t-121.5 111.5l97 110q68 -82 142.5 -114t147.5 -32q88 0 152 33t99.5 97.5t35.5 158.5v830zM97 529v21q0 124 29.5 225.5t85 174.5t134.5 112.5t178 39.5q102 0 178.5 -35.5
t130 -103t84.5 -162.5t43 -215v-92q-11 -119 -42.5 -214t-85 -162t-130.5 -102.5t-180 -35.5q-97 0 -175.5 41t-134.5 115t-85.5 174.5t-29.5 218.5zM282 550v-21q0 -81 16.5 -152t51 -125t88.5 -84.5t129 -30.5q92 0 152 39t95.5 103t55.5 139v241q-11 55 -33.5 106.5
t-58 92t-87.5 64.5t-122 24q-76 0 -130.5 -31.5t-89 -86t-51 -126t-16.5 -152.5zM458 1254v129q0 59 22 117.5t54.5 106.5t63.5 76l107 -83q-34 -60 -47.5 -112t-13.5 -114v-120h-186z" />
    <glyph glyph-name="Hcircumflex" unicode="&#x124;" horiz-adv-x="1461" 
d="M1120 830v-157h-788v157h788zM362 1456v-1456h-193v1456h193zM1288 1456v-1456h-192v1456h192zM768 1858l248 -273v-10h-154l-150 169l-149 -169h-152v11l245 272h112z" />
    <glyph glyph-name="hcircumflex" unicode="&#x125;" horiz-adv-x="1128" 
d="M326 1536v-1536h-185v1536h185zM282 582l-77 3q1 111 33 205.5t90 164.5t138.5 108.5t178.5 38.5q80 0 144 -21.5t109.5 -68.5t69.5 -121.5t24 -181.5v-709h-186v711q0 85 -25 136.5t-73 75t-118 23.5q-69 0 -125.5 -29t-97 -80t-63 -116.5t-22.5 -138.5zM557 1857
l248 -273v-10h-154l-150 169l-149 -169h-152v11l245 272h112z" />
    <glyph glyph-name="Hbar" unicode="&#x126;" horiz-adv-x="1435" 
d="M1417 1167v-143h-1387v143h1387zM1114 830v-157h-788v157h788zM356 1456v-1456h-192v1456h192zM1283 1456v-1456h-193v1456h193z" />
    <glyph glyph-name="hbar" unicode="&#x127;" horiz-adv-x="1158" 
d="M356 1536v-1536h-185v1536h185zM312 582l-77 3q1 111 33 205.5t90 164.5t138.5 108.5t178.5 38.5q80 0 144 -21.5t109.5 -68.5t69.5 -121.5t24 -181.5v-709h-186v711q0 85 -25 136.5t-73 75t-118 23.5q-69 0 -125.5 -29t-97 -80t-63 -116.5t-22.5 -138.5zM638 1385v-152
h-637v152h637z" />
    <glyph glyph-name="Itilde" unicode="&#x128;" horiz-adv-x="557" 
d="M376 1456v-1456h-193v1456h193zM509 1838l125 -11q0 -73 -29 -128t-77.5 -85t-109.5 -30q-51 0 -84 14.5t-59 33t-54.5 33t-70.5 14.5t-70.5 -32t-28.5 -79l-125 6q0 73 28.5 128.5t77.5 87t109 31.5q43 0 75.5 -14.5t61.5 -33t60 -33t71 -14.5q42 0 71 32.5t29 79.5z
" />
    <glyph glyph-name="itilde" unicode="&#x129;" horiz-adv-x="507" 
d="M341 1082v-1082h-185v1082h185zM482 1514l125 -11q0 -73 -29 -128t-77.5 -85t-109.5 -30q-51 0 -84 14.5t-59 33t-54.5 33t-70.5 14.5t-70.5 -32t-28.5 -79l-125 6q0 73 28.5 128.5t77.5 87t109 31.5q43 0 75.5 -14.5t61.5 -33t60 -33t71 -14.5q42 0 71 32.5t29 79.5z
" />
    <glyph glyph-name="Imacron" unicode="&#x12a;" horiz-adv-x="557" 
d="M376 1456v-1456h-193v1456h193zM620 1775v-142h-671v142h671z" />
    <glyph glyph-name="imacron" unicode="&#x12b;" horiz-adv-x="507" 
d="M341 1082v-1082h-185v1082h185zM593 1451v-142h-671v142h671z" />
    <glyph glyph-name="Ibreve" unicode="&#x12c;" horiz-adv-x="557" 
d="M376 1456v-1456h-193v1456h193zM428 1817h150q0 -78 -36 -138.5t-103 -94.5t-159 -34q-139 0 -219.5 74.5t-80.5 192.5h150q0 -59 34 -104t116 -45q80 0 114 45t34 104z" />
    <glyph glyph-name="ibreve" unicode="&#x12d;" horiz-adv-x="507" 
d="M341 1082v-1082h-185v1082h185zM401 1493h150q0 -78 -36 -138.5t-103 -94.5t-159 -34q-139 0 -219.5 74.5t-80.5 192.5h150q0 -59 34 -104t116 -45q80 0 114 45t34 104z" />
    <glyph glyph-name="Iogonek" unicode="&#x12e;" horiz-adv-x="557" 
d="M376 1456v-1456h-193v1456h193zM281 66l74 -57q-43 -32 -82 -66.5t-64 -73t-25 -82.5q0 -33 17.5 -53t60.5 -20q33 0 59 9.5t41 17.5l14 -122q-25 -15 -63.5 -29.5t-97.5 -14.5q-81 0 -136.5 48.5t-55.5 142.5q0 54 26.5 107t83.5 102t148 91z" />
    <glyph glyph-name="iogonek" unicode="&#x12f;" horiz-adv-x="498" 
d="M342 1082v-1082h-186v1082h186zM142 1369q0 45 27.5 76t81.5 31q53 0 81.5 -31t28.5 -76q0 -43 -28.5 -73.5t-81.5 -30.5q-54 0 -81.5 30.5t-27.5 73.5zM252 57l74 -57q-43 -32 -82 -66.5t-64 -73t-25 -82.5q0 -33 17.5 -53t60.5 -20q33 0 59 9.5t41 17.5l14 -122
q-25 -15 -63.5 -29.5t-97.5 -14.5q-81 0 -136.5 48.5t-55.5 142.5q0 54 26.5 107t83.5 102t148 91z" />
    <glyph glyph-name="Idotaccent" unicode="&#x130;" horiz-adv-x="557" 
d="M376 1456v-1456h-193v1456h193zM170 1690q0 44 27.5 75t81.5 31q53 0 81.5 -31t28.5 -75t-28.5 -74.5t-81.5 -30.5q-54 0 -81.5 30.5t-27.5 74.5z" />
    <glyph glyph-name="dotlessi" unicode="&#x131;" horiz-adv-x="507" 
d="M341 1082v-1082h-185v1082h185z" />
    <glyph glyph-name="IJ" unicode="&#x132;" horiz-adv-x="1687" 
d="M376 1456v-1456h-193v1456h193zM1337 425v1031h192v-1031q0 -144 -59 -243t-162.5 -150.5t-237.5 -51.5t-238 46t-163 140t-59 237h193q0 -92 34 -151t94.5 -87t138.5 -28q76 0 136.5 32.5t95.5 97t35 158.5z" />
    <glyph glyph-name="ij" unicode="&#x133;" horiz-adv-x="988" 
d="M342 1082v-1082h-186v1082h186zM142 1369q0 45 27.5 76t81.5 31q53 0 81.5 -31t28.5 -76q0 -43 -28.5 -73.5t-81.5 -30.5q-54 0 -81.5 30.5t-27.5 73.5zM644 1082h186v-1211q0 -99 -31.5 -168t-94 -104.5t-157.5 -35.5q-25 0 -58.5 5t-56.5 12l1 149q19 -4 43 -6.5
t42 -2.5q41 0 69 15t42.5 48t14.5 88v1211zM625 1369q0 45 28 76t81 31q54 0 82 -31t28 -76q0 -43 -28 -73.5t-82 -30.5q-53 0 -81 30.5t-28 73.5z" />
    <glyph glyph-name="Jcircumflex" unicode="&#x134;" horiz-adv-x="1130" 
d="M780 425v1031h192v-1031q0 -144 -59 -243t-162.5 -150.5t-237.5 -51.5t-238 46t-163 140t-59 237h193q0 -92 34 -151t94.5 -87t138.5 -28q76 0 136.5 32.5t95.5 97t35 158.5zM908 1845l248 -273v-10h-154l-150 169l-149 -169h-152v11l245 272h112z" />
    <glyph glyph-name="jcircumflex" unicode="&#x135;" horiz-adv-x="516" 
d="M173 1082h185v-1171q0 -112 -38.5 -190t-110.5 -118t-173 -40q-31 0 -57 3.5t-55 13.5l14 148q15 -6 49.5 -9.5t48.5 -3.5q43 0 73.5 23.5t47 67.5t16.5 105v1171zM322 1495l248 -273v-10h-154l-150 169l-149 -169h-152v11l245 272h112z" />
    <glyph glyph-name="uni0136" unicode="&#x136;" horiz-adv-x="1285" 
d="M362 1456v-1456h-193v1456h193zM1241 1456l-605 -679l-340 -353l-32 206l256 282l489 544h232zM1055 0l-539 710l115 153l654 -863h-230zM747 -25v-79q0 -79 -35.5 -170t-109.5 -152l-105 73q37 57 55.5 117t18.5 130v81h176z" />
    <glyph glyph-name="uni0137" unicode="&#x137;" horiz-adv-x="1038" 
d="M327 1536v-1536h-186v1536h186zM988 1082l-472 -505l-264 -274l-15 197l189 226l336 356h226zM819 0l-386 516l96 165l508 -681h-218zM616 -44v-79q0 -79 -35.5 -170t-109.5 -152l-105 73q37 57 55.5 117t18.5 130v81h176z" />
    <glyph glyph-name="kgreenlandic" unicode="&#x138;" horiz-adv-x="1140" 
d="M340 1082v-1082h-185v1082h185zM1052 1082l-535 -620h-239l-28 162h182l396 458h224zM854 0l-431 490l119 134l546 -624h-234z" />
    <glyph glyph-name="Lacute" unicode="&#x139;" horiz-adv-x="1103" 
d="M1052 157v-157h-728v157h728zM362 1456v-1456h-193v1456h193zM162 1548l194 294h223l-268 -294h-149z" />
    <glyph glyph-name="lacute" unicode="&#x13a;" horiz-adv-x="498" 
d="M342 1536v-1536h-186v1536h186zM147 1649l194 294h223l-268 -294h-149z" />
    <glyph glyph-name="uni013B" unicode="&#x13b;" horiz-adv-x="1103" 
d="M1052 157v-157h-728v157h728zM362 1456v-1456h-193v1456h193zM707 -105v-79q0 -79 -35.5 -170t-109.5 -152l-105 73q37 57 55.5 117t18.5 130v81h176z" />
    <glyph glyph-name="uni013C" unicode="&#x13c;" horiz-adv-x="498" 
d="M342 1536v-1536h-186v1536h186zM336 -105v-79q0 -79 -35.5 -170t-109.5 -152l-105 73q37 57 55.5 117t18.5 130v81h176z" />
    <glyph glyph-name="Lcaron" unicode="&#x13d;" horiz-adv-x="1103" 
d="M1052 157v-157h-728v157h728zM362 1456v-1456h-193v1456h193zM813 1457v-79q0 -79 -35.5 -170t-109.5 -152l-105 73q37 57 55.5 117t18.5 130v81h176z" />
    <glyph glyph-name="lcaron" unicode="&#x13e;" horiz-adv-x="648" 
d="M342 1536v-1536h-186v1536h186zM685 1538v-79q0 -79 -35.5 -170t-109.5 -152l-105 73q37 57 55.5 117t18.5 130v81h176z" />
    <glyph glyph-name="Ldot" unicode="&#x13f;" horiz-adv-x="1103" 
d="M1052 157v-157h-728v157h728zM362 1456v-1456h-193v1456h193zM586 796q0 44 27.5 75t81.5 31q53 0 81.5 -31t28.5 -75t-28.5 -74.5t-81.5 -30.5q-54 0 -81.5 30.5t-27.5 74.5z" />
    <glyph glyph-name="ldot" unicode="&#x140;" horiz-adv-x="718" 
d="M342 1536v-1536h-186v1536h186zM455 781q0 44 27.5 75t81.5 31q53 0 81.5 -31t28.5 -75t-28.5 -74.5t-81.5 -30.5q-54 0 -81.5 30.5t-27.5 74.5z" />
    <glyph glyph-name="Lslash" unicode="&#x141;" horiz-adv-x="1103" 
d="M624 928v-125l-589 -187v125zM1052 157v-157h-729v157h729zM361 1456v-1456h-192v1456h192z" />
    <glyph glyph-name="lslash" unicode="&#x142;" horiz-adv-x="554" 
d="M523 930v-122l-488 -187v122zM364 1536v-1536h-185v1536h185z" />
    <glyph glyph-name="Nacute" unicode="&#x143;" horiz-adv-x="1461" 
d="M1289 1456v-1456h-194l-733 1123v-1123h-193v1456h193l736 -1126v1126h191zM624 1553l194 294h223l-268 -294h-149z" />
    <glyph glyph-name="nacute" unicode="&#x144;" horiz-adv-x="1131" 
d="M326 851v-851h-185v1082h175zM282 582l-77 3q1 111 33 205.5t90 164.5t138.5 108.5t178.5 38.5q80 0 144 -21.5t109.5 -68.5t69.5 -121.5t24 -181.5v-709h-186v711q0 85 -25 136.5t-73 75t-118 23.5q-69 0 -125.5 -29t-97 -80t-63 -116.5t-22.5 -138.5zM471 1242l194 294
h223l-268 -294h-149z" />
    <glyph glyph-name="uni0145" unicode="&#x145;" horiz-adv-x="1461" 
d="M1289 1456v-1456h-194l-733 1123v-1123h-193v1456h193l736 -1126v1126h191zM807 -105v-79q0 -79 -35.5 -170t-109.5 -152l-105 73q37 57 55.5 117t18.5 130v81h176z" />
    <glyph glyph-name="uni0146" unicode="&#x146;" horiz-adv-x="1131" 
d="M326 851v-851h-185v1082h175zM282 582l-77 3q1 111 33 205.5t90 164.5t138.5 108.5t178.5 38.5q80 0 144 -21.5t109.5 -68.5t69.5 -121.5t24 -181.5v-709h-186v711q0 85 -25 136.5t-73 75t-118 23.5q-69 0 -125.5 -29t-97 -80t-63 -116.5t-22.5 -138.5zM650 -105v-79
q0 -79 -35.5 -170t-109.5 -152l-105 73q37 57 55.5 117t18.5 130v81h176z" />
    <glyph glyph-name="Ncaron" unicode="&#x147;" horiz-adv-x="1461" 
d="M1289 1456v-1456h-194l-733 1123v-1123h-193v1456h193l736 -1126v1126h191zM574 1846l151 -170l151 170h160v-10l-254 -274h-114l-250 274v10h156z" />
    <glyph glyph-name="ncaron" unicode="&#x148;" horiz-adv-x="1131" 
d="M326 851v-851h-185v1082h175zM282 582l-77 3q1 111 33 205.5t90 164.5t138.5 108.5t178.5 38.5q80 0 144 -21.5t109.5 -68.5t69.5 -121.5t24 -181.5v-709h-186v711q0 85 -25 136.5t-73 75t-118 23.5q-69 0 -125.5 -29t-97 -80t-63 -116.5t-22.5 -138.5zM421 1535
l151 -170l151 170h160v-10l-254 -274h-114l-250 274v10h156z" />
    <glyph glyph-name="napostrophe" unicode="&#x149;" horiz-adv-x="1131" 
d="M326 851v-851h-185v1082h175zM282 582l-77 3q1 111 33 205.5t90 164.5t138.5 108.5t178.5 38.5q80 0 144 -21.5t109.5 -68.5t69.5 -121.5t24 -181.5v-709h-186v711q0 85 -25 136.5t-73 75t-118 23.5q-69 0 -125.5 -29t-97 -80t-63 -116.5t-22.5 -138.5zM181 1541v-79
q0 -79 -35.5 -170t-109.5 -152l-105 73q37 57 55.5 117t18.5 130v81h176z" />
    <glyph glyph-name="Eng" unicode="&#x14a;" horiz-adv-x="1419" 
d="M162 1456h193v-1456h-193v1456zM220 1342l135 114l852 -1342l-135 -114zM1072 1456h193v-1540q0 -114 -39.5 -192.5t-112.5 -119.5t-175 -41q-31 0 -58 3.5t-57 13.5l14 154q17 -6 50 -9.5t48 -3.5q44 0 74.5 23.5t46.5 67t16 104.5v1540z" />
    <glyph glyph-name="eng" unicode="&#x14b;" horiz-adv-x="1161" 
d="M331 851v-851h-185v1082h166zM274 576l-42 -2q0 115 28 211.5t81 167.5t129.5 110t172.5 39q84 0 152 -24t115.5 -74.5t73 -130.5t25.5 -191v-771q0 -112 -38.5 -190t-111 -118t-173.5 -40q-31 0 -57.5 3.5t-56.5 13.5l14 157q16 -6 51 -9t49 -3q44 0 74.5 21t47 62.5
t16.5 102.5v768q0 75 -15.5 126.5t-46 82t-74 44.5t-100.5 14q-83 0 -142.5 -29t-97.5 -80t-56 -118t-18 -143z" />
    <glyph glyph-name="Omacron" unicode="&#x14c;" horiz-adv-x="1409" 
d="M1290 774v-92q0 -164 -41 -294t-118 -221t-184.5 -139t-240.5 -48q-129 0 -236.5 48t-186 139t-121.5 221t-43 294v92q0 164 42.5 293.5t120.5 221t185.5 139.5t236.5 48q133 0 240.5 -48t185 -139.5t119 -221t41.5 -293.5zM1099 682v94q0 130 -26.5 230t-77.5 168
t-124.5 103t-166.5 35q-90 0 -162.5 -35t-124 -103t-79.5 -168t-28 -230v-94q0 -131 28 -231.5t80.5 -169t125 -103.5t162.5 -35q94 0 167 35t123.5 103.5t76.5 169t26 231.5zM1048 1766v-142h-671v142h671z" />
    <glyph glyph-name="omacron" unicode="&#x14d;" horiz-adv-x="1168" 
d="M92 529v23q0 117 34 217.5t98 175t155 116t204 41.5q114 0 205.5 -41.5t156 -116t98.5 -175t34 -217.5v-23q0 -117 -34 -217t-98.5 -174.5t-155 -116t-204.5 -41.5t-205 41.5t-155.5 116t-98.5 174.5t-34 217zM277 552v-23q0 -81 19 -152.5t57.5 -126.5t96.5 -86.5
t135 -31.5q76 0 133.5 31.5t95.5 86.5t57.5 126.5t19.5 152.5v23q0 80 -19.5 151.5t-58 127t-96 87.5t-134.5 32q-76 0 -133.5 -32t-96 -87.5t-57.5 -127t-19 -151.5zM916 1453v-142h-671v142h671z" />
    <glyph glyph-name="Obreve" unicode="&#x14e;" horiz-adv-x="1409" 
d="M1290 774v-92q0 -164 -41 -294t-118 -221t-184.5 -139t-240.5 -48q-129 0 -236.5 48t-186 139t-121.5 221t-43 294v92q0 164 42.5 293.5t120.5 221t185.5 139.5t236.5 48q133 0 240.5 -48t185 -139.5t119 -221t41.5 -293.5zM1099 682v94q0 130 -26.5 230t-77.5 168
t-124.5 103t-166.5 35q-90 0 -162.5 -35t-124 -103t-79.5 -168t-28 -230v-94q0 -131 28 -231.5t80.5 -169t125 -103.5t162.5 -35q94 0 167 35t123.5 103.5t76.5 169t26 231.5zM856 1808h150q0 -78 -36 -138.5t-103 -94.5t-159 -34q-139 0 -219.5 74.5t-80.5 192.5h150
q0 -59 34 -104t116 -45q80 0 114 45t34 104z" />
    <glyph glyph-name="obreve" unicode="&#x14f;" horiz-adv-x="1168" 
d="M92 529v23q0 117 34 217.5t98 175t155 116t204 41.5q114 0 205.5 -41.5t156 -116t98.5 -175t34 -217.5v-23q0 -117 -34 -217t-98.5 -174.5t-155 -116t-204.5 -41.5t-205 41.5t-155.5 116t-98.5 174.5t-34 217zM277 552v-23q0 -81 19 -152.5t57.5 -126.5t96.5 -86.5
t135 -31.5q76 0 133.5 31.5t95.5 86.5t57.5 126.5t19.5 152.5v23q0 80 -19.5 151.5t-58 127t-96 87.5t-134.5 32q-76 0 -133.5 -32t-96 -87.5t-57.5 -127t-19 -151.5zM724 1495h150q0 -78 -36 -138.5t-103 -94.5t-159 -34q-139 0 -219.5 74.5t-80.5 192.5h150q0 -59 34 -104
t116 -45q80 0 114 45t34 104z" />
    <glyph glyph-name="Ohungarumlaut" unicode="&#x150;" horiz-adv-x="1409" 
d="M1290 774v-92q0 -164 -41 -294t-118 -221t-184.5 -139t-240.5 -48q-129 0 -236.5 48t-186 139t-121.5 221t-43 294v92q0 164 42.5 293.5t120.5 221t185.5 139.5t236.5 48q133 0 240.5 -48t185 -139.5t119 -221t41.5 -293.5zM1099 682v94q0 130 -26.5 230t-77.5 168
t-124.5 103t-166.5 35q-90 0 -162.5 -35t-124 -103t-79.5 -168t-28 -230v-94q0 -131 28 -231.5t80.5 -169t125 -103.5t162.5 -35q94 0 167 35t123.5 103.5t76.5 169t26 231.5zM738 1545l230 303h207l-268 -303h-169zM458 1545l170 303h198l-218 -303h-150z" />
    <glyph glyph-name="ohungarumlaut" unicode="&#x151;" horiz-adv-x="1168" 
d="M92 529v23q0 117 34 217.5t98 175t155 116t204 41.5q114 0 205.5 -41.5t156 -116t98.5 -175t34 -217.5v-23q0 -117 -34 -217t-98.5 -174.5t-155 -116t-204.5 -41.5t-205 41.5t-155.5 116t-98.5 174.5t-34 217zM277 552v-23q0 -81 19 -152.5t57.5 -126.5t96.5 -86.5
t135 -31.5q76 0 133.5 31.5t95.5 86.5t57.5 126.5t19.5 152.5v23q0 80 -19.5 151.5t-58 127t-96 87.5t-134.5 32q-76 0 -133.5 -32t-96 -87.5t-57.5 -127t-19 -151.5zM606 1232l230 303h207l-268 -303h-169zM326 1232l170 303h198l-218 -303h-150z" />
    <glyph glyph-name="OE" unicode="&#x152;" horiz-adv-x="1953" 
d="M660 1477q77 0 152 -6.5t142 -14.5v-158q-66 12 -140.5 19.5t-153.5 7.5q-85 0 -153.5 -28.5t-117 -84.5t-74 -138.5t-25.5 -191.5v-306q0 -109 26 -192t75 -139.5t117.5 -85t153.5 -28.5q78 0 152.5 7.5t139.5 19.5v-158q-67 -7 -141 -14t-151 -7q-124 0 -226.5 43.5
t-176.5 123t-114 189t-40 241.5v304q0 132 40 241.5t113.5 189t175.5 123t226 43.5zM1801 157v-157h-771v157h771zM1069 1456v-1456h-193v1456h193zM1699 830v-157h-669v157h669zM1791 1456v-158h-761v158h761z" />
    <glyph glyph-name="oe" unicode="&#x153;" horiz-adv-x="1860" 
d="M1379 -21q-112 0 -202.5 40t-154.5 112.5t-98.5 171.5t-34.5 217v44q0 119 37.5 217.5t102 170.5t148 111.5t174.5 38.5q112 0 195 -35.5t137.5 -100t81.5 -152.5t27 -194v-122h-793v151h608v26q0 73 -27 135.5t-83.5 101t-145.5 38.5q-61 0 -111.5 -30t-87.5 -83
t-57 -123t-20 -150v-44q0 -81 19 -151.5t57.5 -124t95.5 -83.5t132 -30q110 0 184.5 31.5t124.5 76.5l73 -126q-49 -48 -142 -91t-240 -43zM97 529v23q0 117 33 217.5t95.5 175t151.5 116t202 41.5q115 0 205 -41.5t152.5 -116t95 -175t32.5 -217.5v-23q0 -117 -32.5 -217.5
t-95 -175t-152 -116t-203.5 -41.5t-203.5 41.5t-152 116t-95.5 175t-33 217.5zM283 552v-23q0 -81 18 -152.5t54.5 -127t92.5 -87t133 -31.5t133 31.5t92.5 87t54.5 127t18 152.5v23q0 80 -18 151.5t-55 127t-93.5 87.5t-133.5 32q-76 0 -132 -32t-92.5 -87.5t-54 -127
t-17.5 -151.5z" />
    <glyph glyph-name="Racute" unicode="&#x154;" horiz-adv-x="1262" 
d="M169 1456h482q164 0 277.5 -50t173 -147.5t59.5 -239.5q0 -100 -40.5 -182.5t-116 -140t-180.5 -85.5l-54 -21h-453l-2 157h342q104 0 173 36.5t104 98.5t35 137q0 84 -33 147t-103.5 97.5t-181.5 34.5h-289v-1298h-193v1456zM1020 0l-354 660l201 1l359 -649v-12h-206z
M508 1553l194 294h223l-268 -294h-149z" />
    <glyph glyph-name="racute" unicode="&#x155;" horiz-adv-x="694" 
d="M326 912v-912h-185v1082h180zM664 1088l-1 -172q-23 5 -43.5 6.5t-46.5 1.5q-64 0 -113 -20t-83 -56t-53.5 -85.5t-25.5 -108.5l-52 -30q0 98 19.5 184t60.5 152.5t104.5 104t151.5 37.5q20 0 46 -4.5t36 -9.5zM306 1242l194 294h223l-268 -294h-149z" />
    <glyph glyph-name="uni0156" unicode="&#x156;" horiz-adv-x="1262" 
d="M169 1456h482q164 0 277.5 -50t173 -147.5t59.5 -239.5q0 -100 -40.5 -182.5t-116 -140t-180.5 -85.5l-54 -21h-453l-2 157h342q104 0 173 36.5t104 98.5t35 137q0 84 -33 147t-103.5 97.5t-181.5 34.5h-289v-1298h-193v1456zM1020 0l-354 660l201 1l359 -649v-12h-206z
M698 -105v-79q0 -79 -35.5 -170t-109.5 -152l-105 73q37 57 55.5 117t18.5 130v81h176z" />
    <glyph glyph-name="uni0157" unicode="&#x157;" horiz-adv-x="694" 
d="M326 912v-912h-185v1082h180zM664 1088l-1 -172q-23 5 -43.5 6.5t-46.5 1.5q-64 0 -113 -20t-83 -56t-53.5 -85.5t-25.5 -108.5l-52 -30q0 98 19.5 184t60.5 152.5t104.5 104t151.5 37.5q20 0 46 -4.5t36 -9.5zM333 -104v-79q0 -79 -35.5 -170t-109.5 -152l-105 73
q37 57 55.5 117t18.5 130v81h176z" />
    <glyph glyph-name="Rcaron" unicode="&#x158;" horiz-adv-x="1262" 
d="M169 1456h482q164 0 277.5 -50t173 -147.5t59.5 -239.5q0 -100 -40.5 -182.5t-116 -140t-180.5 -85.5l-54 -21h-453l-2 157h342q104 0 173 36.5t104 98.5t35 137q0 84 -33 147t-103.5 97.5t-181.5 34.5h-289v-1298h-193v1456zM1020 0l-354 660l201 1l359 -649v-12h-206z
M458 1846l151 -170l151 170h160v-10l-254 -274h-114l-250 274v10h156z" />
    <glyph glyph-name="rcaron" unicode="&#x159;" horiz-adv-x="694" 
d="M326 912v-912h-185v1082h180zM664 1088l-1 -172q-23 5 -43.5 6.5t-46.5 1.5q-64 0 -113 -20t-83 -56t-53.5 -85.5t-25.5 -108.5l-52 -30q0 98 19.5 184t60.5 152.5t104.5 104t151.5 37.5q20 0 46 -4.5t36 -9.5zM256 1535l151 -170l151 170h160v-10l-254 -274h-114
l-250 274v10h156z" />
    <glyph glyph-name="Sacute" unicode="&#x15a;" horiz-adv-x="1216" 
d="M945 368q0 51 -15.5 90.5t-54 71.5t-106 61t-170.5 59q-108 32 -195 71.5t-149 90.5t-95 117t-33 151t35 157t100.5 125.5t156.5 83.5t203 30q164 0 278.5 -62.5t174.5 -163t60 -214.5h-192q0 82 -35 145.5t-106 100t-180 36.5q-103 0 -170 -31t-99.5 -84t-32.5 -121
q0 -46 19.5 -83.5t61 -69.5t106 -59t154.5 -52q124 -35 214 -78t148.5 -96.5t87 -121t28.5 -152.5q0 -89 -36 -161t-103 -123t-160.5 -78.5t-208.5 -27.5q-101 0 -198.5 28t-177 84t-127 138.5t-47.5 191.5h192q0 -75 29 -128.5t79.5 -88.5t115 -51.5t134.5 -16.5
q101 0 171 28t106.5 80t36.5 123zM520 1555l194 294h223l-268 -294h-149z" />
    <glyph glyph-name="sacute" unicode="&#x15b;" horiz-adv-x="1057" 
d="M771 287q0 40 -17.5 74.5t-71 63t-160.5 49.5q-90 19 -162.5 45t-123 63t-77.5 87t-27 117q0 64 28.5 121t81 101t126.5 69t165 25q130 0 222 -46t141 -122.5t49 -169.5h-185q0 45 -26.5 87.5t-77 70.5t-123.5 28q-77 0 -124.5 -23.5t-69 -59.5t-21.5 -76
q0 -30 10.5 -53.5t37.5 -43t76 -36.5t125 -34q133 -30 219 -72t128 -103t42 -148q0 -71 -29.5 -130t-85 -101.5t-132 -66t-171.5 -23.5q-143 0 -242 51t-150 132t-51 171h186q4 -76 44 -120.5t98 -63t115 -18.5q76 0 127.5 20t78.5 55t27 80zM460 1242l194 294h223
l-268 -294h-149z" />
    <glyph glyph-name="Scircumflex" unicode="&#x15c;" horiz-adv-x="1216" 
d="M945 368q0 51 -15.5 90.5t-54 71.5t-106 61t-170.5 59q-108 32 -195 71.5t-149 90.5t-95 117t-33 151t35 157t100.5 125.5t156.5 83.5t203 30q164 0 278.5 -62.5t174.5 -163t60 -214.5h-192q0 82 -35 145.5t-106 100t-180 36.5q-103 0 -170 -31t-99.5 -84t-32.5 -121
q0 -46 19.5 -83.5t61 -69.5t106 -59t154.5 -52q124 -35 214 -78t148.5 -96.5t87 -121t28.5 -152.5q0 -89 -36 -161t-103 -123t-160.5 -78.5t-208.5 -27.5q-101 0 -198.5 28t-177 84t-127 138.5t-47.5 191.5h192q0 -75 29 -128.5t79.5 -88.5t115 -51.5t134.5 -16.5
q101 0 171 28t106.5 80t36.5 123zM678 1849l248 -273v-10h-154l-150 169l-149 -169h-152v11l245 272h112z" />
    <glyph glyph-name="scircumflex" unicode="&#x15d;" horiz-adv-x="1057" 
d="M771 287q0 40 -17.5 74.5t-71 63t-160.5 49.5q-90 19 -162.5 45t-123 63t-77.5 87t-27 117q0 64 28.5 121t81 101t126.5 69t165 25q130 0 222 -46t141 -122.5t49 -169.5h-185q0 45 -26.5 87.5t-77 70.5t-123.5 28q-77 0 -124.5 -23.5t-69 -59.5t-21.5 -76
q0 -30 10.5 -53.5t37.5 -43t76 -36.5t125 -34q133 -30 219 -72t128 -103t42 -148q0 -71 -29.5 -130t-85 -101.5t-132 -66t-171.5 -23.5q-143 0 -242 51t-150 132t-51 171h186q4 -76 44 -120.5t98 -63t115 -18.5q76 0 127.5 20t78.5 55t27 80zM618 1536l248 -273v-10h-154
l-150 169l-149 -169h-152v11l245 272h112z" />
    <glyph glyph-name="Scedilla" unicode="&#x15e;" horiz-adv-x="1216" 
d="M945 368q0 51 -15.5 90.5t-54 71.5t-106 61t-170.5 59q-108 32 -195 71.5t-149 90.5t-95 117t-33 151t35 157t100.5 125.5t156.5 83.5t203 30q164 0 278.5 -62.5t174.5 -163t60 -214.5h-192q0 82 -35 145.5t-106 100t-180 36.5q-103 0 -170 -31t-99.5 -84t-32.5 -121
q0 -46 19.5 -83.5t61 -69.5t106 -59t154.5 -52q124 -35 214 -78t148.5 -96.5t87 -121t28.5 -152.5q0 -89 -36 -161t-103 -123t-160.5 -78.5t-208.5 -27.5q-101 0 -198.5 28t-177 84t-127 138.5t-47.5 191.5h192q0 -75 29 -128.5t79.5 -88.5t115 -51.5t134.5 -16.5
q101 0 171 28t106.5 80t36.5 123zM567 -1h133l-12 -53q58 -10 105.5 -48t47.5 -125q0 -47 -19.5 -85.5t-57.5 -66t-94.5 -42.5t-131.5 -15l-7 107q46 0 83.5 10t60 32t22.5 57q0 33 -17 52t-52.5 28.5t-91.5 13.5z" />
    <glyph glyph-name="scedilla" unicode="&#x15f;" horiz-adv-x="1057" 
d="M771 287q0 40 -17.5 74.5t-71 63t-160.5 49.5q-90 19 -162.5 45t-123 63t-77.5 87t-27 117q0 64 28.5 121t81 101t126.5 69t165 25q130 0 222 -46t141 -122.5t49 -169.5h-185q0 45 -26.5 87.5t-77 70.5t-123.5 28q-77 0 -124.5 -23.5t-69 -59.5t-21.5 -76
q0 -30 10.5 -53.5t37.5 -43t76 -36.5t125 -34q133 -30 219 -72t128 -103t42 -148q0 -71 -29.5 -130t-85 -101.5t-132 -66t-171.5 -23.5q-143 0 -242 51t-150 132t-51 171h186q4 -76 44 -120.5t98 -63t115 -18.5q76 0 127.5 20t78.5 55t27 80zM501 -10h133l-12 -53
q58 -10 105.5 -48t47.5 -125q0 -47 -19.5 -85.5t-57.5 -66t-94.5 -42.5t-131.5 -15l-7 107q46 0 83.5 10t60 32t22.5 57q0 33 -17 52t-52.5 28.5t-91.5 13.5z" />
    <glyph glyph-name="Scaron" unicode="&#x160;" horiz-adv-x="1216" 
d="M945 368q0 51 -15.5 90.5t-54 71.5t-106 61t-170.5 59q-108 32 -195 71.5t-149 90.5t-95 117t-33 151t35 157t100.5 125.5t156.5 83.5t203 30q164 0 278.5 -62.5t174.5 -163t60 -214.5h-192q0 82 -35 145.5t-106 100t-180 36.5q-103 0 -170 -31t-99.5 -84t-32.5 -121
q0 -46 19.5 -83.5t61 -69.5t106 -59t154.5 -52q124 -35 214 -78t148.5 -96.5t87 -121t28.5 -152.5q0 -89 -36 -161t-103 -123t-160.5 -78.5t-208.5 -27.5q-101 0 -198.5 28t-177 84t-127 138.5t-47.5 191.5h192q0 -75 29 -128.5t79.5 -88.5t115 -51.5t134.5 -16.5
q101 0 171 28t106.5 80t36.5 123zM470 1848l151 -170l151 170h160v-10l-254 -274h-114l-250 274v10h156z" />
    <glyph glyph-name="scaron" unicode="&#x161;" horiz-adv-x="1057" 
d="M771 287q0 40 -17.5 74.5t-71 63t-160.5 49.5q-90 19 -162.5 45t-123 63t-77.5 87t-27 117q0 64 28.5 121t81 101t126.5 69t165 25q130 0 222 -46t141 -122.5t49 -169.5h-185q0 45 -26.5 87.5t-77 70.5t-123.5 28q-77 0 -124.5 -23.5t-69 -59.5t-21.5 -76
q0 -30 10.5 -53.5t37.5 -43t76 -36.5t125 -34q133 -30 219 -72t128 -103t42 -148q0 -71 -29.5 -130t-85 -101.5t-132 -66t-171.5 -23.5q-143 0 -242 51t-150 132t-51 171h186q4 -76 44 -120.5t98 -63t115 -18.5q76 0 127.5 20t78.5 55t27 80zM410 1535l151 -170l151 170h160
v-10l-254 -274h-114l-250 274v10h156z" />
    <glyph glyph-name="uni0162" unicode="&#x162;" horiz-adv-x="1222" 
d="M707 1456v-1456h-190v1456h190zM1175 1456v-158h-1125v158h1125zM553 0h133l-12 -53q58 -10 105.5 -48t47.5 -125q0 -47 -19.5 -85.5t-57.5 -66t-94.5 -42.5t-131.5 -15l-7 107q46 0 83.5 10t60 32t22.5 57q0 33 -17 52t-52.5 28.5t-91.5 13.5z" />
    <glyph glyph-name="uni0163" unicode="&#x163;" horiz-adv-x="670" 
d="M594 1082v-142h-585v142h585zM207 1345h185v-1077q0 -55 17 -83t44 -37t58 -9q23 0 48.5 4.5t38.5 7.5l1 -151q-22 -7 -57.5 -13.5t-85.5 -6.5q-68 0 -125 27t-90.5 90.5t-33.5 171.5v1076zM392 0h133l-12 -53q58 -10 105.5 -48t47.5 -125q0 -47 -19.5 -85.5t-57.5 -66
t-94.5 -42.5t-131.5 -15l-7 107q46 0 83.5 10t60 32t22.5 57q0 33 -17 52t-52.5 28.5t-91.5 13.5z" />
    <glyph glyph-name="Tcaron" unicode="&#x164;" horiz-adv-x="1222" 
d="M707 1456v-1456h-190v1456h190zM1175 1456v-158h-1125v158h1125zM460 1845l151 -170l151 170h160v-10l-254 -274h-114l-250 274v10h156z" />
    <glyph glyph-name="tcaron" unicode="&#x165;" horiz-adv-x="710" 
d="M594 1082v-142h-585v142h585zM207 1345h185v-1077q0 -55 17 -83t44 -37t58 -9q23 0 48.5 4.5t38.5 7.5l1 -151q-22 -7 -57.5 -13.5t-85.5 -6.5q-68 0 -125 27t-90.5 90.5t-33.5 171.5v1076zM748 1658v-79q0 -79 -35.5 -170t-109.5 -152l-105 73q37 57 55.5 117t18.5 130
v81h176z" />
    <glyph glyph-name="Tbar" unicode="&#x166;" horiz-adv-x="1222" 
d="M707 1456v-1456h-190v1456h190zM1175 1456v-158h-1125v158h1125zM939 974v-152h-637v152h637z" />
    <glyph glyph-name="tbar" unicode="&#x167;" horiz-adv-x="670" 
d="M594 1082v-142h-585v142h585zM207 1345h185v-1077q0 -55 17 -83t44 -37t58 -9q23 0 48.5 4.5t38.5 7.5l1 -151q-22 -7 -57.5 -13.5t-85.5 -6.5q-68 0 -125 27t-90.5 90.5t-33.5 171.5v1076zM625 754v-152h-637v152h637z" />
    <glyph glyph-name="Utilde" unicode="&#x168;" horiz-adv-x="1328" 
d="M1002 1456h192v-985q0 -164 -73 -273t-193.5 -163.5t-261.5 -54.5q-148 0 -267.5 54.5t-189 163.5t-69.5 273v985h191v-985q0 -114 42 -188t117.5 -110t175.5 -36q101 0 176.5 36t117.5 110t42 188v985zM897 1827l125 -11q0 -73 -29 -128t-77.5 -85t-109.5 -30
q-51 0 -84 14.5t-59 33t-54.5 33t-70.5 14.5t-70.5 -32t-28.5 -79l-125 6q0 73 28.5 128.5t77.5 87t109 31.5q43 0 75.5 -14.5t61.5 -33t60 -33t71 -14.5q42 0 71 32.5t29 79.5z" />
    <glyph glyph-name="utilde" unicode="&#x169;" horiz-adv-x="1129" 
d="M803 250v832h186v-1082h-177zM838 478l77 2q0 -108 -22.5 -199.5t-72.5 -158.5t-131 -104.5t-197 -37.5q-79 0 -144.5 23t-112.5 71t-72.5 125t-25.5 185v698h185v-700q0 -73 16.5 -120.5t45 -75t64 -38.5t73.5 -11q118 0 187 45.5t99.5 123t30.5 172.5zM797 1516
l125 -11q0 -73 -29 -128t-77.5 -85t-109.5 -30q-51 0 -84 14.5t-59 33t-54.5 33t-70.5 14.5t-70.5 -32t-28.5 -79l-125 6q0 73 28.5 128.5t77.5 87t109 31.5q43 0 75.5 -14.5t61.5 -33t60 -33t71 -14.5q42 0 71 32.5t29 79.5z" />
    <glyph glyph-name="Umacron" unicode="&#x16a;" horiz-adv-x="1328" 
d="M1002 1456h192v-985q0 -164 -73 -273t-193.5 -163.5t-261.5 -54.5q-148 0 -267.5 54.5t-189 163.5t-69.5 273v985h191v-985q0 -114 42 -188t117.5 -110t175.5 -36q101 0 176.5 36t117.5 110t42 188v985zM1008 1764v-142h-671v142h671z" />
    <glyph glyph-name="umacron" unicode="&#x16b;" horiz-adv-x="1129" 
d="M803 250v832h186v-1082h-177zM838 478l77 2q0 -108 -22.5 -199.5t-72.5 -158.5t-131 -104.5t-197 -37.5q-79 0 -144.5 23t-112.5 71t-72.5 125t-25.5 185v698h185v-700q0 -73 16.5 -120.5t45 -75t64 -38.5t73.5 -11q118 0 187 45.5t99.5 123t30.5 172.5zM908 1453v-142
h-671v142h671z" />
    <glyph glyph-name="Ubreve" unicode="&#x16c;" horiz-adv-x="1328" 
d="M1002 1456h192v-985q0 -164 -73 -273t-193.5 -163.5t-261.5 -54.5q-148 0 -267.5 54.5t-189 163.5t-69.5 273v985h191v-985q0 -114 42 -188t117.5 -110t175.5 -36q101 0 176.5 36t117.5 110t42 188v985zM816 1806h150q0 -78 -36 -138.5t-103 -94.5t-159 -34
q-139 0 -219.5 74.5t-80.5 192.5h150q0 -59 34 -104t116 -45q80 0 114 45t34 104z" />
    <glyph glyph-name="ubreve" unicode="&#x16d;" horiz-adv-x="1129" 
d="M803 250v832h186v-1082h-177zM838 478l77 2q0 -108 -22.5 -199.5t-72.5 -158.5t-131 -104.5t-197 -37.5q-79 0 -144.5 23t-112.5 71t-72.5 125t-25.5 185v698h185v-700q0 -73 16.5 -120.5t45 -75t64 -38.5t73.5 -11q118 0 187 45.5t99.5 123t30.5 172.5zM716 1495h150
q0 -78 -36 -138.5t-103 -94.5t-159 -34q-139 0 -219.5 74.5t-80.5 192.5h150q0 -59 34 -104t116 -45q80 0 114 45t34 104z" />
    <glyph glyph-name="Uring" unicode="&#x16e;" horiz-adv-x="1328" 
d="M1002 1456h192v-985q0 -164 -73 -273t-193.5 -163.5t-261.5 -54.5q-148 0 -267.5 54.5t-189 163.5t-69.5 273v985h191v-985q0 -114 42 -188t117.5 -110t175.5 -36q101 0 176.5 36t117.5 110t42 188v985zM452 1731q0 58 28.5 105t77 75t109.5 28q91 0 153 -61t62 -147
q0 -58 -28.5 -104.5t-77 -73t-109.5 -26.5q-91 0 -153 58t-62 146zM551 1731q0 -44 32.5 -79.5t83.5 -35.5t83.5 34.5t32.5 80.5q0 47 -32.5 82.5t-83.5 35.5t-83.5 -35.5t-32.5 -82.5z" />
    <glyph glyph-name="uring" unicode="&#x16f;" horiz-adv-x="1129" 
d="M803 250v832h186v-1082h-177zM838 478l77 2q0 -108 -22.5 -199.5t-72.5 -158.5t-131 -104.5t-197 -37.5q-79 0 -144.5 23t-112.5 71t-72.5 125t-25.5 185v698h185v-700q0 -73 16.5 -120.5t45 -75t64 -38.5t73.5 -11q118 0 187 45.5t99.5 123t30.5 172.5zM352 1420
q0 58 28.5 105t77 75t109.5 28q91 0 153 -61t62 -147q0 -58 -28.5 -104.5t-77 -73t-109.5 -26.5q-91 0 -153 58t-62 146zM451 1420q0 -44 32.5 -79.5t83.5 -35.5t83.5 34.5t32.5 80.5q0 47 -32.5 82.5t-83.5 35.5t-83.5 -35.5t-32.5 -82.5z" />
    <glyph glyph-name="Uhungarumlaut" unicode="&#x170;" horiz-adv-x="1328" 
d="M1002 1456h192v-985q0 -164 -73 -273t-193.5 -163.5t-261.5 -54.5q-148 0 -267.5 54.5t-189 163.5t-69.5 273v985h191v-985q0 -114 42 -188t117.5 -110t175.5 -36q101 0 176.5 36t117.5 110t42 188v985zM698 1543l230 303h207l-268 -303h-169zM418 1543l170 303h198
l-218 -303h-150z" />
    <glyph glyph-name="uhungarumlaut" unicode="&#x171;" horiz-adv-x="1129" 
d="M803 250v832h186v-1082h-177zM838 478l77 2q0 -108 -22.5 -199.5t-72.5 -158.5t-131 -104.5t-197 -37.5q-79 0 -144.5 23t-112.5 71t-72.5 125t-25.5 185v698h185v-700q0 -73 16.5 -120.5t45 -75t64 -38.5t73.5 -11q118 0 187 45.5t99.5 123t30.5 172.5zM598 1232
l230 303h207l-268 -303h-169zM318 1232l170 303h198l-218 -303h-150z" />
    <glyph glyph-name="Uogonek" unicode="&#x172;" horiz-adv-x="1328" 
d="M1002 1456h192v-985q0 -164 -73 -273t-193.5 -163.5t-261.5 -54.5q-148 0 -267.5 54.5t-189 163.5t-69.5 273v985h191v-985q0 -114 42 -188t117.5 -110t175.5 -36q101 0 176.5 36t117.5 110t42 188v985zM867 101l74 -57q-43 -32 -82 -66.5t-64 -73t-25 -82.5
q0 -33 17.5 -53t60.5 -20q33 0 59 9.5t41 17.5l14 -122q-25 -15 -63.5 -29.5t-97.5 -14.5q-81 0 -136.5 48.5t-55.5 142.5q0 54 26.5 107t83.5 102t148 91z" />
    <glyph glyph-name="uogonek" unicode="&#x173;" horiz-adv-x="1129" 
d="M803 250v832h186v-1082h-177zM838 478l77 2q0 -108 -22.5 -199.5t-72.5 -158.5t-131 -104.5t-197 -37.5q-79 0 -144.5 23t-112.5 71t-72.5 125t-25.5 185v698h185v-700q0 -73 16.5 -120.5t45 -75t64 -38.5t73.5 -11q118 0 187 45.5t99.5 123t30.5 172.5zM905 57l74 -57
q-43 -32 -82 -66.5t-64 -73t-25 -82.5q0 -33 17.5 -53t60.5 -20q33 0 59 9.5t41 17.5l14 -122q-25 -15 -63.5 -29.5t-97.5 -14.5q-81 0 -136.5 48.5t-55.5 142.5q0 54 26.5 107t83.5 102t148 91z" />
    <glyph glyph-name="Wcircumflex" unicode="&#x174;" horiz-adv-x="1817" 
d="M552 440l289 1016h140l-81 -395l-311 -1061h-139zM253 1456l230 -996l69 -460h-138l-353 1456h192zM1355 461l225 995h193l-352 -1456h-138zM1002 1456l281 -1016l102 -440h-139l-300 1061l-82 395h138zM980 1847l248 -273v-10h-154l-150 169l-149 -169h-152v11l245 272
h112z" />
    <glyph glyph-name="wcircumflex" unicode="&#x175;" horiz-adv-x="1539" 
d="M415 192l278 890h122l-24 -177l-283 -905h-119zM228 1082l237 -900l17 -182h-125l-314 1082h185zM1081 189l226 893h184l-314 -1082h-124zM842 1082l272 -875l31 -207h-118l-291 907l-24 175h130zM819 1536l248 -273v-10h-154l-150 169l-149 -169h-152v11l245 272h112z
" />
    <glyph glyph-name="Ycircumflex" unicode="&#x176;" horiz-adv-x="1230" 
d="M236 1456l378 -731l379 731h219l-502 -912v-544h-193v544l-502 912h221zM674 1846l248 -273v-10h-154l-150 169l-149 -169h-152v11l245 272h112z" />
    <glyph glyph-name="ycircumflex" unicode="&#x177;" horiz-adv-x="969" 
d="M445 112l301 970h198l-434 -1249q-15 -40 -39.5 -86.5t-62.5 -88.5t-91.5 -68.5t-127.5 -26.5q-22 0 -56 6t-48 10l-1 150q8 -1 25.5 -2.5t24.5 -1.5q63 0 107 16.5t74.5 55t52.5 105.5zM224 1082l281 -840l48 -195l-133 -68l-398 1103h202zM564 1536l248 -273v-10h-154
l-150 169l-149 -169h-152v11l245 272h112z" />
    <glyph glyph-name="Ydieresis" unicode="&#x178;" horiz-adv-x="1230" 
d="M236 1456l378 -731l379 731h219l-502 -912v-544h-193v544l-502 912h221zM296 1681q0 45 28 76t81 31q54 0 82 -31t28 -76q0 -43 -28 -73.5t-82 -30.5q-53 0 -81 30.5t-28 73.5zM727 1679q0 45 27.5 76t81.5 31q53 0 81.5 -31t28.5 -76q0 -43 -28.5 -73.5t-81.5 -30.5
q-54 0 -81.5 30.5t-27.5 73.5z" />
    <glyph glyph-name="Zacute" unicode="&#x179;" horiz-adv-x="1227" 
d="M1146 157v-157h-986v157h986zM1114 1316l-908 -1316h-119v144l907 1312h120v-140zM1032 1456v-158h-932v158h932zM514 1553l194 294h223l-268 -294h-149z" />
    <glyph glyph-name="zacute" unicode="&#x17a;" horiz-adv-x="1016" 
d="M947 152v-152h-787v152h787zM918 951l-716 -951h-113v136l711 946h118v-131zM836 1082v-153h-739v153h739zM413 1242l194 294h223l-268 -294h-149z" />
    <glyph glyph-name="Zdotaccent" unicode="&#x17b;" horiz-adv-x="1227" 
d="M1146 157v-157h-986v157h986zM1114 1316l-908 -1316h-119v144l907 1312h120v-140zM1032 1456v-158h-932v158h932zM507 1679q0 44 27.5 75t81.5 31q53 0 81.5 -31t28.5 -75t-28.5 -74.5t-81.5 -30.5q-54 0 -81.5 30.5t-27.5 74.5z" />
    <glyph glyph-name="zdotaccent" unicode="&#x17c;" horiz-adv-x="1016" 
d="M947 152v-152h-787v152h787zM918 951l-716 -951h-113v136l711 946h118v-131zM836 1082v-153h-739v153h739zM406 1368q0 44 27.5 75t81.5 31q53 0 81.5 -31t28.5 -75t-28.5 -74.5t-81.5 -30.5q-54 0 -81.5 30.5t-27.5 74.5z" />
    <glyph glyph-name="Zcaron" unicode="&#x17d;" horiz-adv-x="1227" 
d="M1146 157v-157h-986v157h986zM1114 1316l-908 -1316h-119v144l907 1312h120v-140zM1032 1456v-158h-932v158h932zM464 1846l151 -170l151 170h160v-10l-254 -274h-114l-250 274v10h156z" />
    <glyph glyph-name="zcaron" unicode="&#x17e;" horiz-adv-x="1016" 
d="M947 152v-152h-787v152h787zM918 951l-716 -951h-113v136l711 946h118v-131zM836 1082v-153h-739v153h739zM363 1535l151 -170l151 170h160v-10l-254 -274h-114l-250 274v10h156z" />
    <glyph glyph-name="longs" unicode="&#x17f;" horiz-adv-x="508" 
d="M346 0h-185v1196q0 117 41 197.5t116.5 122t180.5 41.5q37 0 72 -6t72 -15l-24 -142q-17 5 -39.5 8t-51.5 3q-59 0 -99.5 -25t-61.5 -71.5t-21 -112.5v-1196z" />
    <glyph glyph-name="uni018F" unicode="&#x18f;" horiz-adv-x="1415" 
d="M697 -20q-148 0 -261 46t-189 133t-114.5 209.5t-38.5 274.5v124h1086v-149h-893v-34q0 -93 21.5 -174t69.5 -141.5t126.5 -95t192.5 -34.5q98 0 174 42t128.5 116.5t79.5 172.5t27 210v94q0 113 -26.5 211t-82.5 172.5t-144 116.5t-212 42q-130 0 -218 -28t-147 -56
l-47 143q24 16 77 40t136.5 42.5t198.5 18.5q159 0 281.5 -51.5t206 -145t126.5 -222t43 -283.5v-94q0 -155 -46.5 -283.5t-129 -222t-191.5 -144t-234 -50.5z" />
    <glyph glyph-name="florin" unicode="&#x192;" horiz-adv-x="698" 
d="M608 1082v-142h-203v-1029q0 -112 -38.5 -190t-110.5 -118t-173 -40q-31 0 -57 3.5t-55 13.5l14 148q15 -6 49.5 -9.5t48.5 -3.5q43 0 73.5 23.5t47 67.5t16.5 105v1029h-171v142h171v114q0 117 40.5 197.5t116.5 122t181 41.5q36 0 71.5 -6t71.5 -15l-22 -146
q-19 5 -44.5 7.5t-54.5 2.5q-59 0 -98 -23.5t-58 -69t-19 -111.5v-114h203z" />
    <glyph glyph-name="Ohorn" unicode="&#x1a0;" horiz-adv-x="1407" 
d="M1270 1592h167q0 -129 -42 -220t-126.5 -138.5t-211.5 -47.5v135q79 0 125.5 32t67 93t20.5 146zM1273 774v-92q0 -164 -41 -294t-118 -221t-184.5 -139t-240.5 -48q-103 0 -193 31t-162.5 90.5t-124.5 145t-79.5 195t-27.5 240.5v92q0 164 42.5 293.5t120.5 221
t185.5 139.5t236.5 48q106 0 197 -31t162.5 -90.5t122.5 -145t77.5 -195t26.5 -240.5zM1082 682v94q0 104 -17 188.5t-50 149.5t-81 109t-110 66.5t-137 22.5q-89 0 -161.5 -35t-124.5 -103t-80 -168t-28 -230v-94q0 -105 18 -190t52.5 -150.5t83 -109.5t110 -66.5
t132.5 -22.5q94 0 167 35t123.5 103.5t76.5 169t26 231.5z" />
    <glyph glyph-name="ohorn" unicode="&#x1a1;" horiz-adv-x="1171" 
d="M1061 1201h149q0 -110 -30 -189.5t-100 -122.5t-190 -43v116q75 0 111.5 30t48 84t11.5 125zM92 529v23q0 117 34 217.5t98 175t155 116t204 41.5q114 0 205.5 -41.5t155.5 -116t98 -175t34 -217.5v-23q0 -117 -34 -217t-98 -174.5t-154.5 -116t-204.5 -41.5t-205 41.5
t-155.5 116t-98.5 174.5t-34 217zM277 552v-23q0 -81 19 -152.5t57.5 -126.5t96.5 -86.5t135 -31.5q76 0 133.5 31.5t95.5 86.5t57.5 126.5t19.5 152.5v23q0 80 -19.5 151.5t-58 127t-96 87.5t-134.5 32q-76 0 -133.5 -32t-96 -87.5t-57.5 -127t-19 -151.5z" />
    <glyph glyph-name="Uhorn" unicode="&#x1af;" horiz-adv-x="1424" 
d="M1407 1538h158q0 -141 -41.5 -237t-133 -145t-242.5 -49v135q102 0 158.5 33.5t78.5 99.5t22 163zM1002 1456h192v-985q0 -164 -73 -273t-193.5 -163.5t-261.5 -54.5q-148 0 -267.5 54.5t-189 163.5t-69.5 273v985h191v-985q0 -114 42 -188t117.5 -110t175.5 -36
q101 0 176.5 36t117.5 110t42 188v985z" />
    <glyph glyph-name="uhorn" unicode="&#x1b0;" horiz-adv-x="1267" 
d="M1154 1169h142q0 -109 -28.5 -183t-99.5 -111t-200 -37v114q90 0 129 22.5t48 70.5t9 124zM803 250v832h186v-1082h-177zM838 478l77 2q0 -108 -22.5 -199.5t-72.5 -158.5t-131 -104.5t-197 -37.5q-79 0 -144.5 23t-112.5 71t-72.5 125t-25.5 185v698h185v-700
q0 -73 16.5 -120.5t45 -75t64 -38.5t73.5 -11q118 0 187 45.5t99.5 123t30.5 172.5z" />
    <glyph glyph-name="uni01F0" unicode="&#x1f0;" horiz-adv-x="516" 
d="M173 1082h185v-1171q0 -112 -38.5 -190t-110.5 -118t-173 -40q-31 0 -57 3.5t-55 13.5l14 148q15 -6 49.5 -9.5t48.5 -3.5q43 0 73.5 23.5t47 67.5t16.5 105v1171zM114 1494l151 -170l151 170h160v-10l-254 -274h-114l-250 274v10h156z" />
    <glyph glyph-name="Aringacute" unicode="&#x1fa;" horiz-adv-x="1336" 
d="M708 1327l-482 -1327h-197l555 1456h127zM1112 0l-483 1327l-3 129h127l557 -1456h-198zM1087 539v-158h-818v158h818zM633 1757l146 183h189l-220 -183h-115zM504 1541q0 74 50.5 120.5t120.5 46.5q69 0 118.5 -46.5t49.5 -120.5q0 -72 -49.5 -117.5t-118.5 -45.5
q-70 0 -120.5 45.5t-50.5 117.5zM588 1541q0 -35 26 -59.5t61 -24.5t59.5 24.5t24.5 59.5q0 38 -24.5 63t-59.5 25t-61 -25t-26 -63z" />
    <glyph glyph-name="aringacute" unicode="&#x1fb;" horiz-adv-x="1114" 
d="M779 185v557q0 64 -25.5 111.5t-76.5 73.5t-126 26q-70 0 -122.5 -24t-82 -63t-29.5 -84h-185q0 58 30 115t86.5 103.5t136 74t177.5 27.5q118 0 208.5 -40t142 -120.5t51.5 -201.5v-504q0 -54 9.5 -115t28.5 -105v-16h-193q-14 32 -22 85.5t-8 99.5zM811 656l2 -130
h-187q-79 0 -141 -12.5t-104 -37.5t-64 -62.5t-22 -87.5q0 -51 23 -93t69.5 -66.5t114.5 -24.5q85 0 150 36t103.5 88t41.5 101l79 -89q-7 -42 -38 -93t-82.5 -97.5t-122 -77t-158.5 -30.5q-110 0 -192.5 43t-128 115.5t-45.5 162.5q0 87 34 153.5t98 111t154 67.5t201 23
h215zM543 1446l146 183h189l-220 -183h-115zM414 1230q0 74 50.5 120.5t120.5 46.5q69 0 118.5 -46.5t49.5 -120.5q0 -72 -49.5 -117.5t-118.5 -45.5q-70 0 -120.5 45.5t-50.5 117.5zM498 1230q0 -35 26 -59.5t61 -24.5t59.5 24.5t24.5 59.5q0 38 -24.5 63t-59.5 25t-61 -25
t-26 -63z" />
    <glyph glyph-name="AEacute" unicode="&#x1fc;" horiz-adv-x="1914" 
d="M970 1307l-758 -1307h-227l881 1456h119zM1115 528v-175h-743v175h743zM1880 152v-152h-733v152h733zM1121 1456l61 -1456h-186l-61 1456h186zM1737 834v-152h-630v152h630zM1818 1456v-152h-732v152h732zM837 1564l194 294h223l-268 -294h-149z" />
    <glyph glyph-name="aeacute" unicode="&#x1fd;" horiz-adv-x="1730" 
d="M749 183v537q0 72 -24.5 123.5t-72.5 79t-117 27.5q-74 0 -129 -26t-85 -69t-30 -95l-184 18q0 70 31 129t87.5 103t135 68t174.5 24q118 0 206.5 -43t138 -128t49.5 -213v-500zM790 636v-140h-261q-87 0 -146 -27.5t-89 -72t-30 -96.5q0 -48 22.5 -86.5t68 -61
t115.5 -22.5q54 0 110.5 20.5t104 53t77 68.5t30.5 67l96 -144q-27 -49 -85.5 -99t-150 -83.5t-218.5 -33.5q-114 0 -193.5 40t-120.5 113.5t-41 171.5q0 79 28.5 140.5t85 104t140.5 65t194 22.5h263zM1263 -21q-123 0 -217 40t-158 112.5t-97 171.5t-33 217v44
q0 119 34.5 217.5t97 170.5t146.5 111.5t183 38.5q108 0 190.5 -33.5t138.5 -97t84.5 -153.5t28.5 -202v-118h-804v142h618v31q0 76 -25 139t-81 101.5t-150 38.5q-69 0 -122 -30t-89.5 -83t-55.5 -123t-19 -150v-44q0 -81 19 -151.5t59 -124t102.5 -83.5t149.5 -30
q119 0 192 36.5t123 70.5l65 -136q-22 -17 -70.5 -46.5t-125.5 -53t-184 -23.5zM757 1243l194 294h223l-268 -294h-149z" />
    <glyph glyph-name="Oslashacute" unicode="&#x1fe;" horiz-adv-x="1409" 
d="M1309 1516l-1002 -1609h-143l1005 1609h140zM1290 774v-92q0 -164 -41 -294t-118 -221t-184.5 -139t-240.5 -48q-103 0 -193 31t-162.5 90.5t-124.5 145t-79.5 195t-27.5 240.5v92q0 164 42.5 293.5t120.5 221t185.5 139.5t236.5 48q106 0 196.5 -31t162.5 -90.5
t122.5 -145t77.5 -195t27 -240.5zM1099 682v94q0 104 -17 188.5t-50 149.5t-81 109t-110 66.5t-137 22.5q-90 0 -162.5 -35t-124 -103t-79.5 -168t-28 -230v-94q0 -105 18 -190t52.5 -150.5t83 -109.5t109.5 -66.5t133 -22.5q94 0 167 35t123.5 103.5t76.5 169t26 231.5z
M613 1626l194 294h223l-268 -294h-149z" />
    <glyph glyph-name="oslashacute" unicode="&#x1ff;" horiz-adv-x="1161" 
d="M983 1209l-663 -1344h-123l663 1344h123zM92 529v23q0 117 34 217.5t98 175t155 116t204 41.5q114 0 205.5 -41.5t155.5 -116t98 -175t34 -217.5v-23q0 -117 -34 -217t-98 -174.5t-154.5 -116t-204.5 -41.5t-205 41.5t-155.5 116t-98.5 174.5t-34 217zM277 552v-23
q0 -81 19 -152.5t57.5 -126.5t96.5 -86.5t135 -31.5q76 0 133.5 31.5t95.5 86.5t57.5 126.5t19.5 152.5v23q0 80 -19.5 151.5t-58 127t-96 87.5t-134.5 32q-76 0 -133.5 -32t-96 -87.5t-57.5 -127t-19 -151.5zM435 1241l194 294h223l-268 -294h-149z" />
    <glyph glyph-name="uni0218" unicode="&#x218;" horiz-adv-x="1216" 
d="M945 368q0 51 -15.5 90.5t-54 71.5t-106 61t-170.5 59q-108 32 -195 71.5t-149 90.5t-95 117t-33 151t35 157t100.5 125.5t156.5 83.5t203 30q164 0 278.5 -62.5t174.5 -163t60 -214.5h-192q0 82 -35 145.5t-106 100t-180 36.5q-103 0 -170 -31t-99.5 -84t-32.5 -121
q0 -46 19.5 -83.5t61 -69.5t106 -59t154.5 -52q124 -35 214 -78t148.5 -96.5t87 -121t28.5 -152.5q0 -89 -36 -161t-103 -123t-160.5 -78.5t-208.5 -27.5q-101 0 -198.5 28t-177 84t-127 138.5t-47.5 191.5h192q0 -75 29 -128.5t79.5 -88.5t115 -51.5t134.5 -16.5
q101 0 171 28t106.5 80t36.5 123zM715 -116v-79q0 -79 -35.5 -170t-109.5 -152l-105 73q37 57 55.5 117t18.5 130v81h176z" />
    <glyph glyph-name="uni0219" unicode="&#x219;" horiz-adv-x="1057" 
d="M771 287q0 40 -17.5 74.5t-71 63t-160.5 49.5q-90 19 -162.5 45t-123 63t-77.5 87t-27 117q0 64 28.5 121t81 101t126.5 69t165 25q130 0 222 -46t141 -122.5t49 -169.5h-185q0 45 -26.5 87.5t-77 70.5t-123.5 28q-77 0 -124.5 -23.5t-69 -59.5t-21.5 -76
q0 -30 10.5 -53.5t37.5 -43t76 -36.5t125 -34q133 -30 219 -72t128 -103t42 -148q0 -71 -29.5 -130t-85 -101.5t-132 -66t-171.5 -23.5q-143 0 -242 51t-150 132t-51 171h186q4 -76 44 -120.5t98 -63t115 -18.5q76 0 127.5 20t78.5 55t27 80zM649 -125v-79q0 -79 -35.5 -170
t-109.5 -152l-105 73q37 57 55.5 117t18.5 130v81h176z" />
    <glyph glyph-name="uni021A" unicode="&#x21a;" horiz-adv-x="1222" 
d="M707 1456v-1456h-190v1456h190zM1175 1456v-158h-1125v158h1125zM701 -115v-79q0 -79 -35.5 -170t-109.5 -152l-105 73q37 57 55.5 117t18.5 130v81h176z" />
    <glyph glyph-name="uni021B" unicode="&#x21b;" horiz-adv-x="670" 
d="M594 1082v-142h-585v142h585zM207 1345h185v-1077q0 -55 17 -83t44 -37t58 -9q23 0 48.5 4.5t38.5 7.5l1 -151q-22 -7 -57.5 -13.5t-85.5 -6.5q-68 0 -125 27t-90.5 90.5t-33.5 171.5v1076zM540 -115v-79q0 -79 -35.5 -170t-109.5 -152l-105 73q37 57 55.5 117t18.5 130
v81h176z" />
    <glyph glyph-name="uni0237" unicode="&#x237;" horiz-adv-x="516" 
d="M173 1082h185v-1171q0 -112 -38.5 -190t-110.5 -118t-173 -40q-31 0 -57 3.5t-55 13.5l14 148q15 -6 49.5 -9.5t48.5 -3.5q43 0 73.5 23.5t47 67.5t16.5 105v1171z" />
    <glyph glyph-name="uni0259" unicode="&#x259;" horiz-adv-x="1080" 
d="M512 1104q112 0 202.5 -40t154.5 -112.5t98.5 -171.5t34.5 -217v-44q0 -118 -37.5 -217t-102.5 -171t-148 -111.5t-174 -38.5q-112 0 -195 35.5t-137.5 100t-81.5 152.5t-27 194v122h793v-152h-608v-25q0 -72 27 -135t84 -102t145 -39q60 0 110.5 30t87.5 83t57.5 123.5
t20.5 150.5v44q0 80 -19.5 150.5t-57.5 124t-95 84t-132 30.5q-109 0 -184 -31.5t-125 -76.5l-73 126q50 48 142.5 91t239.5 43z" />
    <glyph glyph-name="uni02BC" unicode="&#x2bc;" horiz-adv-x="410" 
d="M328 1536v-128q0 -60 -20.5 -126.5t-59.5 -128t-94 -107.5l-106 73q47 66 71.5 135.5t24.5 150.5v131h184z" />
    <glyph glyph-name="circumflex" unicode="&#x2c6;" horiz-adv-x="964" 
d="M527 1536l248 -273v-10h-154l-150 169l-149 -169h-152v11l245 272h112z" />
    <glyph glyph-name="caron" unicode="&#x2c7;" horiz-adv-x="910" 
d="M298 1535l151 -170l151 170h160v-10l-254 -274h-114l-250 274v10h156z" />
    <glyph glyph-name="uni02C9" unicode="&#x2c9;" horiz-adv-x="939" 
d="M814 1445v-142h-671v142h671z" />
    <glyph glyph-name="breve" unicode="&#x2d8;" horiz-adv-x="875" 
d="M578 1495h150q0 -78 -36 -138.5t-103 -94.5t-159 -34q-139 0 -219.5 74.5t-80.5 192.5h150q0 -59 34 -104t116 -45q80 0 114 45t34 104z" />
    <glyph glyph-name="dotaccent" unicode="&#x2d9;" horiz-adv-x="498" 
d="M142 1368q0 44 27.5 75t81.5 31q53 0 81.5 -31t28.5 -75t-28.5 -74.5t-81.5 -30.5q-54 0 -81.5 30.5t-27.5 74.5z" />
    <glyph glyph-name="ring" unicode="&#x2da;" horiz-adv-x="686" 
d="M121 1409q0 58 28.5 105t77 75t109.5 28q91 0 153 -61t62 -147q0 -58 -28.5 -104.5t-77 -73t-109.5 -26.5q-91 0 -153 58t-62 146zM220 1409q0 -44 32.5 -79.5t83.5 -35.5t83.5 34.5t32.5 80.5q0 47 -32.5 82.5t-83.5 35.5t-83.5 -35.5t-32.5 -82.5z" />
    <glyph glyph-name="ogonek" unicode="&#x2db;" horiz-adv-x="555" 
d="M308 57l74 -57q-43 -32 -82 -66.5t-64 -73t-25 -82.5q0 -33 17.5 -53t60.5 -20q33 0 59 9.5t41 17.5l14 -122q-25 -15 -63.5 -29.5t-97.5 -14.5q-81 0 -136.5 48.5t-55.5 142.5q0 54 26.5 107t83.5 102t148 91z" />
    <glyph glyph-name="tilde" unicode="&#x2dc;" horiz-adv-x="966" 
d="M706 1512l125 -11q0 -73 -29 -128t-77.5 -85t-109.5 -30q-51 0 -84 14.5t-59 33t-54.5 33t-70.5 14.5t-70.5 -32t-28.5 -79l-125 6q0 73 28.5 128.5t77.5 87t109 31.5q43 0 75.5 -14.5t61.5 -33t60 -33t71 -14.5q42 0 71 32.5t29 79.5z" />
    <glyph glyph-name="hungarumlaut" unicode="&#x2dd;" horiz-adv-x="764" 
d="M375 1232l230 303h207l-268 -303h-169zM95 1232l170 303h198l-218 -303h-150z" />
    <glyph glyph-name="uni02F3" unicode="&#x2f3;" horiz-adv-x="602" 
d="M127 -243q0 73 51.5 120t122.5 47q69 0 119 -47t50 -120t-50 -118t-119 -45q-71 0 -122.5 45t-51.5 118zM214 -243q0 -34 25.5 -58.5t61.5 -24.5q34 0 58.5 24t24.5 59q0 37 -24.5 62t-58.5 25q-36 0 -61.5 -25t-25.5 -62z" />
    <glyph glyph-name="gravecomb" unicode="&#x300;" horiz-adv-x="0" 
d="M-634 1536l193 -294h-158l-258 294h223z" />
    <glyph glyph-name="acutecomb" unicode="&#x301;" horiz-adv-x="0" 
d="M-658 1242l194 294h223l-268 -294h-149z" />
    <glyph glyph-name="tildecomb" unicode="&#x303;" horiz-adv-x="0" 
d="M-303 1512l125 -11q0 -73 -29 -128t-77.5 -85t-109.5 -30q-51 0 -84 14.5t-59 33t-54.5 33t-70.5 14.5t-70.5 -32t-28.5 -79l-125 6q0 73 28.5 128.5t77.5 87t109 31.5q43 0 75.5 -14.5t61.5 -33t60 -33t71 -14.5q42 0 71 32.5t29 79.5z" />
    <glyph glyph-name="hookabovecomb" unicode="&#x309;" horiz-adv-x="0" 
d="M-520 1242h-133l-1 152q51 3 83 10.5t47 23t15 41.5q0 21 -13 35.5t-36 24t-53 13.5t-64 4l7 106q74 0 130.5 -13t95 -38t58 -59.5t19.5 -76.5q0 -76 -48 -110.5t-106 -42.5z" />
    <glyph glyph-name="uni030F" unicode="&#x30f;" horiz-adv-x="0" 
d="M-511 1252h-169l-305 266h225zM-250 1252h-150l-246 266h207z" />
    <glyph glyph-name="dotbelowcomb" unicode="&#x323;" horiz-adv-x="0" 
d="M-712 -246q0 45 27.5 76t81.5 31q53 0 81.5 -31t28.5 -76q0 -43 -28.5 -73.5t-81.5 -30.5q-54 0 -81.5 30.5t-27.5 73.5z" />
    <glyph glyph-name="tonos" unicode="&#x384;" horiz-adv-x="526" 
d="M184 1263l54 336h174l-116 -336h-112z" />
    <glyph glyph-name="dieresistonos" unicode="&#x385;" horiz-adv-x="1036" 
d="M433 1409l48 264h188l-100 -264h-136zM114 1371q0 45 27.5 76t81.5 31q53 0 81.5 -31t28.5 -76q0 -43 -28.5 -73.5t-81.5 -30.5q-54 0 -81.5 30.5t-27.5 73.5zM680 1369q0 45 28 76t81 31q54 0 82 -31t28 -76q0 -43 -28 -73.5t-82 -30.5q-53 0 -81 30.5t-28 73.5z" />
    <glyph glyph-name="Alphatonos" unicode="&#x386;" horiz-adv-x="1336" 
d="M708 1327l-482 -1327h-197l555 1456h127zM1112 0l-483 1327l-3 129h127l557 -1456h-198zM1087 539v-158h-818v158h818zM187 1262l54 336h174l-116 -336h-112z" />
    <glyph glyph-name="anoteleia" unicode="&#x387;" horiz-adv-x="535" 
d="M148 729q0 47 29 79.5t85 32.5t85.5 -32.5t29.5 -79.5q0 -46 -29.5 -77.5t-85.5 -31.5t-85 31.5t-29 77.5z" />
    <glyph glyph-name="Epsilontonos" unicode="&#x388;" horiz-adv-x="1264" 
d="M1194 157v-157h-771v157h771zM462 1456v-1456h-193v1456h193zM1092 830v-157h-669v157h669zM1184 1456v-158h-761v158h761zM-116 1263l54 336h174l-116 -336h-112z" />
    <glyph glyph-name="Etatonos" unicode="&#x389;" horiz-adv-x="1561" 
d="M1220 830v-157h-788v157h788zM462 1456v-1456h-193v1456h193zM1388 1456v-1456h-192v1456h192zM-102 1265l54 336h174l-116 -336h-112z" />
    <glyph glyph-name="Iotatonos" unicode="&#x38a;" horiz-adv-x="657" 
d="M476 1456v-1456h-193v1456h193zM-96 1265l54 336h174l-116 -336h-112z" />
    <glyph glyph-name="Omicrontonos" unicode="&#x38c;" horiz-adv-x="1429" 
d="M1310 774v-92q0 -164 -41 -294t-118 -221t-184.5 -139t-240.5 -48q-129 0 -236.5 48t-186 139t-121.5 221t-43 294v92q0 164 42.5 293.5t120.5 221t185.5 139.5t236.5 48q133 0 240.5 -48t185 -139.5t119 -221t41.5 -293.5zM1119 682v94q0 130 -26.5 230t-77.5 168
t-124.5 103t-166.5 35q-90 0 -162.5 -35t-124 -103t-79.5 -168t-28 -230v-94q0 -131 28 -231.5t80.5 -169t125 -103.5t162.5 -35q94 0 167 35t123.5 103.5t76.5 169t26 231.5zM-6 1262l54 336h174l-116 -336h-112z" />
    <glyph glyph-name="Upsilontonos" unicode="&#x38e;" horiz-adv-x="1330" 
d="M336 1456l378 -731l379 731h219l-502 -912v-544h-193v544l-502 912h221zM-138 1262l54 336h174l-116 -336h-112z" />
    <glyph glyph-name="Omegatonos" unicode="&#x38f;" horiz-adv-x="1382" 
d="M1053 726v116q0 117 -25 206t-73 149.5t-115 91t-151 30.5q-83 0 -149.5 -30.5t-113.5 -91t-72 -149.5t-25 -206v-116q0 -128 21.5 -227t61.5 -169.5t95.5 -112t122.5 -54.5v-141q-108 13 -198.5 76.5t-157 162t-103.5 218.5t-37 247v114q0 142 40 258.5t114 201
t175.5 130.5t225.5 46q125 0 227.5 -46t176.5 -130.5t114.5 -201t40.5 -258.5v-114q0 -126 -36.5 -246t-102.5 -218.5t-155.5 -162t-195.5 -77.5v141q66 14 120.5 55.5t93.5 112t60 169.5t21 226zM758 0v157h483v-157h-483zM138 0v157h492v-157h-492zM-4 1262l54 336h174
l-116 -336h-112z" />
    <glyph glyph-name="iotadieresistonos" unicode="&#x390;" horiz-adv-x="664" 
d="M195 1082h186v-806q0 -55 17 -83t44 -37.5t58 -9.5q23 0 48.5 4.5t38.5 7.5l1 -150q-22 -7 -57.5 -14t-85.5 -7q-68 0 -125 27.5t-91 91t-34 171.5v805zM218 1388l48 264h188l-100 -264h-136zM-101 1350q0 45 27.5 76t81.5 31q53 0 81.5 -31t28.5 -76q0 -43 -28.5 -73.5
t-81.5 -30.5q-54 0 -81.5 30.5t-27.5 73.5zM465 1348q0 45 28 76t81 31q54 0 82 -31t28 -76q0 -43 -28 -73.5t-82 -30.5q-53 0 -81 30.5t-28 73.5z" />
    <glyph glyph-name="Alpha" unicode="&#x391;" horiz-adv-x="1336" 
d="M708 1327l-482 -1327h-197l555 1456h127zM1112 0l-483 1327l-3 129h127l557 -1456h-198zM1087 539v-158h-818v158h818z" />
    <glyph glyph-name="Beta" unicode="&#x392;" horiz-adv-x="1276" 
d="M688 681h-369l-2 155h335q83 0 145 28t96.5 80.5t34.5 125.5q0 80 -30.5 130.5t-93 74t-158.5 23.5h-284v-1298h-193v1456h477q112 0 200 -22.5t149.5 -70t93.5 -120.5t32 -175q0 -90 -46 -162.5t-127.5 -118.5t-190.5 -59zM679 0h-436l109 157h327q92 0 156.5 32
t98.5 90.5t34 138.5q0 81 -29 140t-91 91t-160 32h-275l2 155h376l41 -56q105 -9 178 -59.5t111.5 -128.5t38.5 -172q0 -136 -59.5 -229.5t-167.5 -142t-254 -48.5z" />
    <glyph glyph-name="Gamma" unicode="&#x393;" horiz-adv-x="1139" 
d="M1072 1456v-158h-702v-1298h-192v1456h894z" />
    <glyph glyph-name="uni0394" unicode="&#x394;" horiz-adv-x="1444" 
d="M770 1320l-540 -1320h-198l614 1456h121zM1198 0l-510 1328l6 128h122l580 -1456h-198zM1244 157v-157h-1066v157h1066z" />
    <glyph glyph-name="uni0394" unicode="&#x2206;" horiz-adv-x="1444" 
d="M770 1320l-540 -1320h-198l614 1456h121zM1198 0l-510 1328l6 128h122l580 -1456h-198zM1244 157v-157h-1066v157h1066z" />
    <glyph glyph-name="Epsilon" unicode="&#x395;" horiz-adv-x="1164" 
d="M1094 157v-157h-771v157h771zM362 1456v-1456h-193v1456h193zM992 830v-157h-669v157h669zM1084 1456v-158h-761v158h761z" />
    <glyph glyph-name="Zeta" unicode="&#x396;" horiz-adv-x="1227" 
d="M1146 157v-157h-986v157h986zM1114 1316l-908 -1316h-119v144l907 1312h120v-140zM1032 1456v-158h-932v158h932z" />
    <glyph glyph-name="Eta" unicode="&#x397;" horiz-adv-x="1461" 
d="M1120 830v-157h-788v157h788zM362 1456v-1456h-193v1456h193zM1288 1456v-1456h-192v1456h192z" />
    <glyph glyph-name="Theta" unicode="&#x398;" horiz-adv-x="1394" 
d="M960 811v-151h-516v151h516zM1274 774v-92q0 -164 -41 -294t-118 -221t-184.5 -139t-240.5 -48q-103 0 -193 31t-162.5 90.5t-124.5 145t-79.5 195t-27.5 240.5v92q0 164 42.5 293.5t120.5 221t185.5 139.5t236.5 48q106 0 197 -31t162.5 -90.5t122.5 -145t77.5 -195
t26.5 -240.5zM1083 682v94q0 104 -17 188.5t-50 149.5t-81 109t-110 66.5t-137 22.5q-89 0 -161.5 -35t-124.5 -103t-80 -168t-28 -230v-94q0 -105 18 -190t52.5 -150.5t83 -109.5t110 -66.5t132.5 -22.5q94 0 167 35t123.5 103.5t76.5 169t26 231.5z" />
    <glyph glyph-name="Iota" unicode="&#x399;" horiz-adv-x="557" 
d="M376 1456v-1456h-193v1456h193z" />
    <glyph glyph-name="Kappa" unicode="&#x39a;" horiz-adv-x="1285" 
d="M362 1456v-1456h-193v1456h193zM1241 1456l-605 -679l-340 -353l-32 206l256 282l489 544h232zM1055 0l-539 710l115 153l654 -863h-230z" />
    <glyph glyph-name="Lambda" unicode="&#x39b;" horiz-adv-x="1343" 
d="M714 1297l-457 -1297h-207l531 1456h126zM1077 0l-461 1303l10 153h127l530 -1456h-206z" />
    <glyph glyph-name="Mu" unicode="&#x39c;" horiz-adv-x="1788" 
d="M230 1456h187l477 -1187l476 1187h188l-592 -1456h-146zM169 1456h165l27 -888v-568h-192v1456zM1453 1456h165v-1456h-192v568z" />
    <glyph glyph-name="Nu" unicode="&#x39d;" horiz-adv-x="1461" 
d="M1289 1456v-1456h-194l-733 1123v-1123h-193v1456h193l736 -1126v1126h191z" />
    <glyph glyph-name="Xi" unicode="&#x39e;" horiz-adv-x="1170" 
d="M120 0v157h938v-157h-938zM207 674v157h754v-157h-754zM124 1298v158h917v-158h-917z" />
    <glyph glyph-name="Omicron" unicode="&#x39f;" horiz-adv-x="1409" 
d="M1290 774v-92q0 -164 -41 -294t-118 -221t-184.5 -139t-240.5 -48q-129 0 -236.5 48t-186 139t-121.5 221t-43 294v92q0 164 42.5 293.5t120.5 221t185.5 139.5t236.5 48q133 0 240.5 -48t185 -139.5t119 -221t41.5 -293.5zM1099 682v94q0 130 -26.5 230t-77.5 168
t-124.5 103t-166.5 35q-90 0 -162.5 -35t-124 -103t-79.5 -168t-28 -230v-94q0 -131 28 -231.5t80.5 -169t125 -103.5t162.5 -35q94 0 167 35t123.5 103.5t76.5 169t26 231.5z" />
    <glyph glyph-name="Pi" unicode="&#x3a0;" horiz-adv-x="1461" 
d="M1281 1456v-1456h-192v1298h-718v-1298h-193v1456h1103z" />
    <glyph glyph-name="Rho" unicode="&#x3a1;" horiz-adv-x="1292" 
d="M706 571h-389v157h389q113 0 183 36t102.5 100t32.5 146q0 75 -32.5 141t-102.5 106.5t-183 40.5h-344v-1298h-193v1456h537q165 0 279 -57t173 -157.5t59 -229.5q0 -140 -59 -239t-173 -150.5t-279 -51.5z" />
    <glyph glyph-name="Sigma" unicode="&#x3a3;" horiz-adv-x="1170" 
d="M1092 158v-158h-947v158h947zM1044 1456v-158h-928v158h928zM755 742v-24l-569 -718h-116v143l481 587l-481 583v143h116z" />
    <glyph glyph-name="Tau" unicode="&#x3a4;" horiz-adv-x="1222" 
d="M707 1456v-1456h-190v1456h190zM1175 1456v-158h-1125v158h1125z" />
    <glyph glyph-name="Upsilon" unicode="&#x3a5;" horiz-adv-x="1230" 
d="M236 1456l378 -731l379 731h219l-502 -912v-544h-193v544l-502 912h221z" />
    <glyph glyph-name="Phi" unicode="&#x3a6;" horiz-adv-x="1467" 
d="M818 176h-163q-130 0 -236 39.5t-182.5 112t-117.5 173t-41 221.5q0 162 73 286t201.5 194t297.5 70h172q127 0 232 -39.5t181.5 -113t118.5 -173.5t42 -222q0 -162 -72 -285.5t-202 -193t-304 -69.5zM655 335h165q131 0 216 48t127 135.5t42 205.5q0 89 -24 160.5
t-71.5 122.5t-119 78.5t-166.5 27.5h-174q-127 0 -212 -48.5t-127.5 -136t-42.5 -206.5q0 -88 23.5 -159.5t71.5 -122.5t121 -78t171 -27zM834 1456v-1456h-193v1456h193z" />
    <glyph glyph-name="Chi" unicode="&#x3a7;" horiz-adv-x="1284" 
d="M294 1456l350 -558l350 558h225l-460 -721l471 -735h-227l-359 569l-359 -569h-227l471 735l-460 721h225z" />
    <glyph glyph-name="Psi" unicode="&#x3a8;" horiz-adv-x="1417" 
d="M1120 1456h194v-526q0 -183 -78.5 -310.5t-215.5 -194t-312 -66.5h-29q-127 0 -235 37.5t-187 110.5t-123 179.5t-44 243.5v526h192v-526q0 -99 29.5 -176t82.5 -130t126 -80t160 -27h29q123 0 215.5 48t144 140.5t51.5 224.5v526zM791 1456v-1456h-193v1456h193z" />
    <glyph glyph-name="uni03A9" unicode="&#x3a9;" horiz-adv-x="1362" 
d="M1033 726v116q0 117 -25 206t-73 149.5t-115 91t-151 30.5q-83 0 -149.5 -30.5t-113.5 -91t-72 -149.5t-25 -206v-116q0 -128 21.5 -227t61.5 -169.5t95.5 -112t122.5 -54.5v-141q-108 13 -198.5 76.5t-157 162t-103.5 218.5t-37 247v114q0 142 40 258.5t114 201
t175.5 130.5t225.5 46q125 0 227.5 -46t176.5 -130.5t114.5 -201t40.5 -258.5v-114q0 -126 -36.5 -246t-102.5 -218.5t-155.5 -162t-195.5 -77.5v141q66 14 120.5 55.5t93.5 112t60 169.5t21 226zM738 0v157h483v-157h-483zM118 0v157h492v-157h-492z" />
    <glyph glyph-name="uni03A9" unicode="&#x2126;" horiz-adv-x="1362" 
d="M1033 726v116q0 117 -25 206t-73 149.5t-115 91t-151 30.5q-83 0 -149.5 -30.5t-113.5 -91t-72 -149.5t-25 -206v-116q0 -128 21.5 -227t61.5 -169.5t95.5 -112t122.5 -54.5v-141q-108 13 -198.5 76.5t-157 162t-103.5 218.5t-37 247v114q0 142 40 258.5t114 201
t175.5 130.5t225.5 46q125 0 227.5 -46t176.5 -130.5t114.5 -201t40.5 -258.5v-114q0 -126 -36.5 -246t-102.5 -218.5t-155.5 -162t-195.5 -77.5v141q66 14 120.5 55.5t93.5 112t60 169.5t21 226zM738 0v157h483v-157h-483zM118 0v157h492v-157h-492z" />
    <glyph glyph-name="Iotadieresis" unicode="&#x3aa;" horiz-adv-x="557" 
d="M376 1456v-1456h-193v1456h193zM-43 1693q0 45 28 76t81 31q54 0 82 -31t28 -76q0 -43 -28 -73.5t-82 -30.5q-53 0 -81 30.5t-28 73.5zM388 1691q0 45 27.5 76t81.5 31q53 0 81.5 -31t28.5 -76q0 -43 -28.5 -73.5t-81.5 -30.5q-54 0 -81.5 30.5t-27.5 73.5z" />
    <glyph glyph-name="Upsilondieresis" unicode="&#x3ab;" horiz-adv-x="1230" 
d="M236 1456l378 -731l379 731h219l-502 -912v-544h-193v544l-502 912h221zM296 1681q0 45 28 76t81 31q54 0 82 -31t28 -76q0 -43 -28 -73.5t-82 -30.5q-53 0 -81 30.5t-28 73.5zM727 1679q0 45 27.5 76t81.5 31q53 0 81.5 -31t28.5 -76q0 -43 -28.5 -73.5t-81.5 -30.5
q-54 0 -81.5 30.5t-27.5 73.5z" />
    <glyph glyph-name="alphatonos" unicode="&#x3ac;" horiz-adv-x="1158" 
d="M100 501v21q0 128 28 234t81.5 183.5t132.5 120t181 42.5q78 0 140.5 -23t110.5 -67.5t82 -108t55 -144.5t30 -178v-83q-11 -120 -41 -215.5t-81 -163.5t-125 -104t-173 -36q-100 0 -178.5 38.5t-132.5 108.5t-82 165.5t-28 209.5zM286 522v-21q0 -77 16 -144t49.5 -118
t87 -79.5t128.5 -28.5q73 0 125 30t87.5 81.5t59 117.5t39.5 137v66q-12 73 -34.5 142t-59 124.5t-89.5 88t-126 32.5q-76 0 -129.5 -34t-87.5 -93t-50 -136.5t-16 -164.5zM850 1082h157v-787q0 -46 6 -75t17.5 -45.5t26 -23t30.5 -6.5q10 0 18.5 2t15.5 4l23 -138
q-31 -22 -61 -28t-62 -6q-47 0 -84 17.5t-63 55t-39.5 98t-13.5 145.5v552zM557 1256l54 336h174l-116 -336h-112z" />
    <glyph glyph-name="epsilontonos" unicode="&#x3ad;" horiz-adv-x="1105" 
d="M525 587h220v-108h-205q-83 0 -139.5 -18.5t-85.5 -57t-29 -99.5q0 -35 17.5 -66.5t52 -55.5t84 -38t112.5 -14q81 0 141 27t93.5 70.5t33.5 92.5h184q0 -88 -39 -152.5t-104 -106t-145.5 -61.5t-163.5 -20q-98 0 -180.5 22t-143.5 64t-94.5 102.5t-33.5 136.5
q0 68 28.5 120.5t83 88.5t133.5 54.5t180 18.5zM745 517h-220q-92 0 -167 21t-128.5 58.5t-82 86.5t-28.5 104q0 77 30.5 135.5t87.5 98t137 60t178 20.5q89 0 167 -22t138.5 -64t94.5 -101t34 -133h-184q0 48 -33.5 86.5t-90 61t-126.5 22.5q-85 0 -140 -23.5t-81.5 -61
t-26.5 -79.5q0 -35 13.5 -64.5t41.5 -51t73 -33.5t108 -12h205v-109zM483 1255l54 336h174l-116 -336h-112z" />
    <glyph glyph-name="etatonos" unicode="&#x3ae;" horiz-adv-x="1161" 
d="M331 851v-851h-185v1082h166zM293 576l-78 -2q0 115 29 211.5t84.5 167.5t135 110t179.5 39q84 0 152 -20t115.5 -67t73 -125.5t25.5 -195.5v-1109h-185v1106q0 74 -15.5 124t-46 79.5t-74 42.5t-100.5 13q-79 0 -135 -29.5t-91.5 -81.5t-52 -119.5t-16.5 -143.5z
M510 1256l54 336h174l-116 -336h-112z" />
    <glyph glyph-name="iotatonos" unicode="&#x3af;" horiz-adv-x="664" 
d="M195 1082h186v-806q0 -55 17 -83t44 -37.5t58 -9.5q23 0 48.5 4.5t38.5 7.5l1 -150q-22 -7 -57.5 -14t-85.5 -7q-68 0 -125 27.5t-91 91t-34 171.5v805zM226 1235l54 336h174l-116 -336h-112z" />
    <glyph glyph-name="upsilondieresistonos" unicode="&#x3b0;" horiz-adv-x="1118" 
d="M144 1082h185v-656q0 -80 15 -136.5t42.5 -91.5t64.5 -51t80 -16q74 0 129.5 37.5t93 100.5t56.5 139.5t19 153.5q-2 136 -37 266.5t-86 253.5h195q30 -62 56 -140t42 -172.5t16 -206.5q0 -115 -28.5 -220.5t-87.5 -187t-148 -129t-211 -47.5q-91 0 -164.5 26.5t-125 81
t-79 139.5t-27.5 202v654zM467 1388l48 264h188l-100 -264h-136zM148 1350q0 45 27.5 76t81.5 31q53 0 81.5 -31t28.5 -76q0 -43 -28.5 -73.5t-81.5 -30.5q-54 0 -81.5 30.5t-27.5 73.5zM714 1348q0 45 28 76t81 31q54 0 82 -31t28 -76q0 -43 -28 -73.5t-82 -30.5
q-53 0 -81 30.5t-28 73.5z" />
    <glyph glyph-name="alpha" unicode="&#x3b1;" horiz-adv-x="1158" 
d="M100 501v21q0 128 28 234t81.5 183.5t132.5 120t181 42.5q78 0 140.5 -23t110.5 -67.5t82 -108t55 -144.5t30 -178v-83q-11 -120 -41 -215.5t-81 -163.5t-125 -104t-173 -36q-100 0 -178.5 38.5t-132.5 108.5t-82 165.5t-28 209.5zM286 522v-21q0 -77 16 -144t49.5 -118
t87 -79.5t128.5 -28.5q73 0 125 30t87.5 81.5t59 117.5t39.5 137v66q-12 73 -34.5 142t-59 124.5t-89.5 88t-126 32.5q-76 0 -129.5 -34t-87.5 -93t-50 -136.5t-16 -164.5zM850 1082h157v-787q0 -46 6 -75t17.5 -45.5t26 -23t30.5 -6.5q10 0 18.5 2t15.5 4l23 -138
q-31 -22 -61 -28t-62 -6q-47 0 -84 17.5t-63 55t-39.5 98t-13.5 145.5v552z" />
    <glyph glyph-name="beta" unicode="&#x3b2;" horiz-adv-x="1213" 
d="M517 824h147q139 0 236.5 -52.5t149.5 -142.5t52 -204q0 -142 -58.5 -241.5t-161 -151.5t-234.5 -52q-78 0 -154.5 22t-139.5 67.5t-100.5 117.5t-37.5 171l73 41q0 -73 43 -134t119.5 -97.5t177.5 -36.5q92 0 156 37.5t97.5 103t33.5 149.5q0 70 -29.5 135.5
t-86.5 107.5t-140 42h-143v118zM606 1476q130 0 226 -50t148.5 -138.5t52.5 -203.5q0 -95 -53 -173.5t-149 -125.5t-225 -47h-89v120h85q88 0 142 29.5t79 81.5t25 119q0 60 -27 114t-80.5 88t-134.5 34q-73 0 -132 -32.5t-93.5 -89.5t-34.5 -129v-1457h-185v1457
q0 111 61 202.5t162 146t222 54.5z" />
    <glyph glyph-name="gamma" unicode="&#x3b3;" horiz-adv-x="1027" 
d="M612 132v-549h-185v549h185zM514 251l288 831h190l-401 -1082h-123zM236 1082l296 -832l41 -250h-123l-403 1082h189z" />
    <glyph glyph-name="delta" unicode="&#x3b4;" horiz-adv-x="1161" 
d="M221 1269q0 91 46 157.5t130.5 102.5t202.5 36q79 0 142 -13.5t130 -42.5l-1 -159q-46 17 -119.5 38t-155.5 21q-57 0 -99 -16.5t-65 -47t-23 -71.5q0 -20 10 -43t35 -47t70 -48.5t116 -48.5q143 -49 237 -127.5t140.5 -186t46.5 -242.5v-22q0 -113 -32.5 -209.5
t-95 -168t-152 -111.5t-202.5 -40q-115 0 -205 40t-152.5 111.5t-95 168t-32.5 209.5v22q0 119 46 216t121.5 162t163.5 86l-1 5q-65 26 -111.5 66t-70.5 92t-24 111zM283 531v-22q0 -77 18 -145t54.5 -120.5t93 -82.5t133.5 -30q76 0 131.5 30t92 82.5t54 120.5t17.5 145
v22q0 64 -21 126t-60 115t-92.5 89.5t-119.5 49.5q-76 0 -133 -30.5t-94 -83.5t-55.5 -121.5t-18.5 -144.5z" />
    <glyph glyph-name="epsilon" unicode="&#x3b5;" horiz-adv-x="1105" 
d="M525 587h220v-108h-205q-83 0 -139.5 -18.5t-85.5 -57t-29 -99.5q0 -35 17.5 -66.5t52 -55.5t84 -38t112.5 -14q81 0 141 27t93.5 70.5t33.5 92.5h184q0 -88 -39 -152.5t-104 -106t-145.5 -61.5t-163.5 -20q-98 0 -180.5 22t-143.5 64t-94.5 102.5t-33.5 136.5
q0 68 28.5 120.5t83 88.5t133.5 54.5t180 18.5zM745 517h-220q-92 0 -167 21t-128.5 58.5t-82 86.5t-28.5 104q0 77 30.5 135.5t87.5 98t137 60t178 20.5q89 0 167 -22t138.5 -64t94.5 -101t34 -133h-184q0 48 -33.5 86.5t-90 61t-126.5 22.5q-85 0 -140 -23.5t-81.5 -61
t-26.5 -79.5q0 -35 13.5 -64.5t41.5 -51t73 -33.5t108 -12h205v-109z" />
    <glyph glyph-name="zeta" unicode="&#x3b6;" horiz-adv-x="1061" 
d="M880 1456h84v-120l-351 -426q-77 -92 -130.5 -173t-81 -165t-27.5 -186q0 -48 9 -83t28 -60.5t49.5 -42.5t72.5 -29l130 -38q74 -21 132.5 -40.5t92 -59t33.5 -121.5q0 -53 -29.5 -110.5t-70 -107t-76.5 -78.5l-98 85q31 35 52.5 65t33 58.5t11.5 58.5q0 23 -16 42
t-49.5 35t-87.5 30l-90 24q-87 23 -146.5 54t-96.5 74t-53.5 101.5t-16.5 137.5q0 74 28 170t89.5 207t161.5 230zM109 1456h797v-151h-797v151z" />
    <glyph glyph-name="eta" unicode="&#x3b7;" horiz-adv-x="1161" 
d="M331 851v-851h-185v1082h166zM293 576l-78 -2q0 115 29 211.5t84.5 167.5t135 110t179.5 39q84 0 152 -20t115.5 -67t73 -125.5t25.5 -195.5v-1109h-185v1106q0 74 -15.5 124t-46 79.5t-74 42.5t-100.5 13q-79 0 -135 -29.5t-91.5 -81.5t-52 -119.5t-16.5 -143.5z" />
    <glyph glyph-name="theta" unicode="&#x3b8;" horiz-adv-x="1167" 
d="M582 1476q85 0 156 -24.5t127.5 -75t96 -128t60 -183t20.5 -240.5v-185q0 -135 -20.5 -241t-59.5 -185t-95 -131t-127 -77.5t-156 -25.5q-84 0 -155 25.5t-127.5 77.5t-96.5 131t-61 185t-21 241v185q0 135 21 240.5t60.5 183t95.5 128t127 75t155 24.5zM582 1325
q-66 0 -117.5 -31t-86 -91t-52.5 -147t-18 -200v-55h549v55q0 90 -11.5 164t-33.5 131t-55.5 95.5t-77 58.5t-97.5 20zM584 132q54 0 97.5 21t76.5 61t55 98.5t33 133.5t11 165v39h-549v-39q0 -90 11.5 -165t34.5 -133.5t56.5 -98.5t77 -61t96.5 -21z" />
    <glyph glyph-name="iota" unicode="&#x3b9;" horiz-adv-x="664" 
d="M195 1082h186v-806q0 -55 17 -83t44 -37.5t58 -9.5q23 0 48.5 4.5t38.5 7.5l1 -150q-22 -7 -57.5 -14t-85.5 -7q-68 0 -125 27.5t-91 91t-34 171.5v805z" />
    <glyph glyph-name="kappa" unicode="&#x3ba;" horiz-adv-x="1140" 
d="M340 1082v-1082h-185v1082h185zM1052 1082l-535 -620h-239l-28 162h182l396 458h224zM854 0l-431 490l119 134l546 -624h-234z" />
    <glyph glyph-name="lambda" unicode="&#x3bb;" horiz-adv-x="1135" 
d="M539 807l-296 -807h-205l421 1102l130 -12zM262 1518q56 0 97 -12t70.5 -35t49.5 -55t34 -72l427 -1110q14 -33 28 -52.5t31 -28t41 -8.5q9 0 19.5 0.5t17.5 1.5l6 -152q-11 -4 -32.5 -8t-44.5 -4q-61 0 -104.5 14.5t-76.5 58t-66 130.5l-306 792l-118 287
q-15 38 -31.5 60t-38 31.5t-51.5 9.5q-8 0 -23 -0.5t-24 -1.5l-1 142q15 5 45 8.5t51 3.5z" />
    <glyph glyph-name="uni03BC" unicode="&#x3bc;" horiz-adv-x="1161" 
d="M821 1082h185v-1082h-167l-18 250v832zM854 503l69 2q0 -114 -20.5 -210t-63.5 -167t-110 -110t-161 -39q-76 0 -135.5 19.5t-102 62t-70.5 110.5l-37 289h116q0 -103 17 -168t47.5 -100t70.5 -48t86 -13q89 0 146.5 27.5t89.5 77.5t45 118t13 149zM155 1082h184v-1498
h-184v1498z" />
    <glyph glyph-name="nu" unicode="&#x3bd;" horiz-adv-x="992" 
d="M470 167l296 915h189l-389 -1082h-124zM223 1082l305 -920l21 -162h-124l-392 1082h190z" />
    <glyph glyph-name="xi" unicode="&#x3be;" horiz-adv-x="1004" 
d="M909 1437l-26 -148q-37 10 -74.5 18t-76 13t-78.5 5q-105 0 -172 -26.5t-98.5 -69t-31.5 -92.5q0 -49 18.5 -89.5t57.5 -69.5t101 -44.5t149 -15.5h141v-116h-145q-115 0 -208 25.5t-160 70.5t-103 105t-36 130q0 82 34 145.5t98 107.5t153 67t200 23q47 0 94 -5
t89.5 -14t73.5 -20zM674 878h145v-112h-141q-124 0 -211.5 -34.5t-133.5 -106t-46 -181.5q0 -89 40 -150t104 -97.5t137 -54.5l111 -26q82 -20 139.5 -43t88.5 -63t31 -111q-1 -53 -30.5 -109.5t-70 -105.5t-75.5 -78l-107 85q30 35 54 62t38 56t14 68q0 26 -15.5 43.5
t-49 31t-89.5 26.5l-58 14q-99 23 -181 56t-141.5 83.5t-92 127.5t-32.5 189q0 106 42 186t118.5 134.5t181 82t230.5 27.5z" />
    <glyph glyph-name="omicron" unicode="&#x3bf;" horiz-adv-x="1168" 
d="M92 529v23q0 117 34 217.5t98 175t155 116t204 41.5q114 0 205.5 -41.5t156 -116t98.5 -175t34 -217.5v-23q0 -117 -34 -217t-98.5 -174.5t-155 -116t-204.5 -41.5t-205 41.5t-155.5 116t-98.5 174.5t-34 217zM277 552v-23q0 -81 19 -152.5t57.5 -126.5t96.5 -86.5
t135 -31.5q76 0 133.5 31.5t95.5 86.5t57.5 126.5t19.5 152.5v23q0 80 -19.5 151.5t-58 127t-96 87.5t-134.5 32q-76 0 -133.5 -32t-96 -87.5t-57.5 -127t-19 -151.5z" />
    <glyph glyph-name="pi" unicode="&#x3c0;" horiz-adv-x="1221" 
d="M1137 1082v-153h-1096v153h1096zM396 1082v-1082h-186v1082h186zM796 1082h186v-806q0 -55 17 -83t44 -37.5t58 -9.5q23 0 48.5 4.5t38.5 7.5l1 -150q-22 -7 -57.5 -14t-85.5 -7q-68 0 -125 27.5t-91 91t-34 171.5v805z" />
    <glyph glyph-name="rho" unicode="&#x3c1;" horiz-adv-x="1161" 
d="M146 -416v995q0 129 35 226.5t97 163.5t142.5 99.5t171.5 33.5q116 0 202.5 -42.5t145 -120t87.5 -183.5t29 -234v-21q0 -114 -27 -209.5t-80 -165.5t-130.5 -108t-177.5 -38q-104 0 -183 34t-134 98.5t-87.5 155.5t-43.5 206q2 -1 24 -19.5t44 -36.5l22 -18
q20 -70 55.5 -131.5t95.5 -99t151 -37.5q75 0 129 28.5t88.5 79t51 117.5t16.5 144v21q0 87 -15 164.5t-48 136.5t-86 93t-129 34q-70 0 -119.5 -34.5t-80.5 -90.5t-45.5 -121.5t-14.5 -126.5l-1 -993h-185z" />
    <glyph glyph-name="sigma1" unicode="&#x3c2;" horiz-adv-x="1102" 
d="M574 1102q121 0 216 -46t149.5 -133.5t54.5 -212.5h-176q0 67 -27 121.5t-81.5 86.5t-135.5 32q-76 0 -130.5 -33.5t-89 -90t-51 -125t-16.5 -139.5v-42q0 -90 39.5 -161.5t118.5 -123.5t197 -84q79 -21 141.5 -43.5t99 -65t36.5 -124.5q-1 -52 -30 -109t-69.5 -105.5
t-75.5 -77.5l-98 84q31 35 52 62t32 55t11 67q0 30 -16 49t-50 32t-89 25q-157 35 -265 103.5t-164 172.5t-56 244v42q0 109 31.5 206.5t92 172.5t148.5 118t201 43z" />
    <glyph glyph-name="sigma" unicode="&#x3c3;" horiz-adv-x="1160" 
d="M97 529v23q0 113 32.5 209.5t95 168.5t152 112t202.5 40q31 -3 56 -21.5t56.5 -41t82.5 -36.5q92 -43 157 -112.5t99 -159.5t34 -197v-22q0 -100 -32.5 -192t-95 -164t-152 -114t-203.5 -42t-203.5 41.5t-152.5 116t-95.5 174.5t-32.5 217zM282 552v-23q0 -81 18 -152.5
t54.5 -126.5t93 -86.5t133.5 -31.5t133 31.5t92 86.5t54 126.5t18 152.5v23q0 75 -18 143t-54.5 121t-93 83t-133.5 30q-76 0 -132.5 -30t-92.5 -83t-54 -121t-18 -143zM1148 1082v-153h-570v153h570z" />
    <glyph glyph-name="tau" unicode="&#x3c4;" horiz-adv-x="1068" 
d="M986 1082v-150h-905v150h905zM429 1082h185v-812q0 -54 14.5 -83t38.5 -39.5t52 -10.5t52 8t41 18l41 -131q-46 -33 -90 -42.5t-91 -9.5q-76 0 -130.5 30t-83.5 96t-29 174v802z" />
    <glyph glyph-name="upsilon" unicode="&#x3c5;" horiz-adv-x="1118" 
d="M144 1082h185v-656q0 -80 15 -136.5t42.5 -91.5t64.5 -51t80 -16q74 0 129.5 37.5t93 100.5t56.5 139.5t19 153.5q-2 136 -37 266.5t-86 253.5h195q30 -62 56 -140t42 -172.5t16 -206.5q0 -115 -28.5 -220.5t-87.5 -187t-148 -129t-211 -47.5q-91 0 -164.5 26.5t-125 81
t-79 139.5t-27.5 202v654z" />
    <glyph glyph-name="phi" unicode="&#x3c6;" horiz-adv-x="1443" 
d="M621 -478v1333q0 70 31.5 120.5t88 78.5t131.5 28q99 0 186.5 -40t154.5 -112.5t105 -171t38 -214.5q0 -111 -35 -212.5t-111.5 -181t-199 -125.5t-297.5 -46q-171 0 -290 47.5t-193 129.5t-108 187.5t-34 220.5q0 112 29 208t86 174.5t141 135.5l100 -132
q-59 -52 -96 -116t-54.5 -133t-20.5 -137q0 -78 23 -154.5t74 -139.5t135.5 -101t207.5 -38q169 0 269 62.5t144.5 157.5t44.5 193q-1 73 -21 142t-57.5 124t-92.5 87.5t-128 32.5q-32 0 -49 -21t-17 -47v-1340h-185z" />
    <glyph glyph-name="chi" unicode="&#x3c7;" horiz-adv-x="1136" 
d="M1047 1082l-730 -1498h-197l740 1498h187zM195 1097q72 0 121 -26.5t81.5 -68t54.5 -87.5t39 -85l414 -948q20 -43 41 -77t46 -53.5t56 -19.5q16 0 46.5 1t46.5 4l-48 -159q-10 -7 -29 -10.5t-32 -3.5q-58 0 -100.5 17.5t-74.5 51.5t-59.5 84.5t-56.5 116.5l-402 922
q-19 48 -43.5 89.5t-57.5 67.5t-79 26q-12 0 -33.5 -2t-34.5 -3l-1 149q17 5 48.5 9.5t56.5 4.5z" />
    <glyph glyph-name="psi" unicode="&#x3c8;" horiz-adv-x="1434" 
d="M96 1082h185v-488q0 -127 32 -215.5t89.5 -143t134.5 -79.5t167 -25q128 0 216 38t141 102t77 141.5t24 155.5q-3 134 -38.5 263t-88.5 251h195q31 -61 57.5 -138.5t43 -171t16.5 -204.5q0 -117 -33.5 -223t-107.5 -188.5t-195.5 -130t-297.5 -47.5q-141 0 -255 36
t-195 111t-124 192t-43 278v486zM612 1082h185v-1555h-185v1555z" />
    <glyph glyph-name="omega" unicode="&#x3c9;" horiz-adv-x="1687" 
d="M1232 1082h194q36 -63 67 -141t50 -172.5t19 -207.5q0 -115 -21.5 -220t-68 -186.5t-122.5 -128.5t-184 -47q-86 0 -153 32.5t-113.5 95.5t-70.5 155t-24 211v297h130v-299q0 -93 16.5 -157.5t46.5 -105t70.5 -59t87.5 -18.5q60 0 102 34t68 93.5t38 137t12 165.5
q-3 136 -43.5 266.5t-100.5 254.5zM258 1082h194q-60 -124 -100.5 -254.5t-43.5 -266.5q0 -70 7.5 -134t23.5 -117.5t41.5 -94t62 -62.5t84.5 -22t88.5 18.5t70.5 59t46.5 105t16.5 157.5v299h130v-297q0 -119 -24 -211t-70.5 -155t-113.5 -95.5t-153 -32.5
q-87 0 -152.5 30.5t-112 85.5t-75.5 128.5t-42.5 159.5t-13.5 178q0 113 19 207.5t50 172.5t67 141z" />
    <glyph glyph-name="iotadieresis" unicode="&#x3ca;" horiz-adv-x="664" 
d="M195 1082h186v-806q0 -55 17 -83t44 -37.5t58 -9.5q23 0 48.5 4.5t38.5 7.5l1 -150q-22 -7 -57.5 -14t-85.5 -7q-68 0 -125 27.5t-91 91t-34 171.5v805zM-28 1350q0 45 28 76t81 31q54 0 82 -31t28 -76q0 -43 -28 -73.5t-82 -30.5q-53 0 -81 30.5t-28 73.5zM403 1348
q0 45 27.5 76t81.5 31q53 0 81.5 -31t28.5 -76q0 -43 -28.5 -73.5t-81.5 -30.5q-54 0 -81.5 30.5t-27.5 73.5z" />
    <glyph glyph-name="upsilondieresis" unicode="&#x3cb;" horiz-adv-x="1118" 
d="M144 1082h185v-656q0 -80 15 -136.5t42.5 -91.5t64.5 -51t80 -16q74 0 129.5 37.5t93 100.5t56.5 139.5t19 153.5q-2 136 -37 266.5t-86 253.5h195q30 -62 56 -140t42 -172.5t16 -206.5q0 -115 -28.5 -220.5t-87.5 -187t-148 -129t-211 -47.5q-91 0 -164.5 26.5t-125 81
t-79 139.5t-27.5 202v654zM221 1350q0 45 28 76t81 31q54 0 82 -31t28 -76q0 -43 -28 -73.5t-82 -30.5q-53 0 -81 30.5t-28 73.5zM652 1348q0 45 27.5 76t81.5 31q53 0 81.5 -31t28.5 -76q0 -43 -28.5 -73.5t-81.5 -30.5q-54 0 -81.5 30.5t-27.5 73.5z" />
    <glyph glyph-name="omicrontonos" unicode="&#x3cc;" horiz-adv-x="1168" 
d="M92 529v23q0 117 34 217.5t98 175t155 116t204 41.5q114 0 205.5 -41.5t156 -116t98.5 -175t34 -217.5v-23q0 -117 -34 -217t-98.5 -174.5t-155 -116t-204.5 -41.5t-205 41.5t-155.5 116t-98.5 174.5t-34 217zM277 552v-23q0 -81 19 -152.5t57.5 -126.5t96.5 -86.5
t135 -31.5q76 0 133.5 31.5t95.5 86.5t57.5 126.5t19.5 152.5v23q0 80 -19.5 151.5t-58 127t-96 87.5t-134.5 32q-76 0 -133.5 -32t-96 -87.5t-57.5 -127t-19 -151.5zM507 1256l54 336h174l-116 -336h-112z" />
    <glyph glyph-name="upsilontonos" unicode="&#x3cd;" horiz-adv-x="1118" 
d="M144 1082h185v-656q0 -80 15 -136.5t42.5 -91.5t64.5 -51t80 -16q74 0 129.5 37.5t93 100.5t56.5 139.5t19 153.5q-2 136 -37 266.5t-86 253.5h195q30 -62 56 -140t42 -172.5t16 -206.5q0 -115 -28.5 -220.5t-87.5 -187t-148 -129t-211 -47.5q-91 0 -164.5 26.5t-125 81
t-79 139.5t-27.5 202v654zM475 1235l54 336h174l-116 -336h-112z" />
    <glyph glyph-name="omegatonos" unicode="&#x3ce;" horiz-adv-x="1687" 
d="M1232 1082h194q36 -63 67 -141t50 -172.5t19 -207.5q0 -115 -21.5 -220t-68 -186.5t-122.5 -128.5t-184 -47q-86 0 -153 32.5t-113.5 95.5t-70.5 155t-24 211v297h130v-299q0 -93 16.5 -157.5t46.5 -105t70.5 -59t87.5 -18.5q60 0 102 34t68 93.5t38 137t12 165.5
q-3 136 -43.5 266.5t-100.5 254.5zM258 1082h194q-60 -124 -100.5 -254.5t-43.5 -266.5q0 -70 7.5 -134t23.5 -117.5t41.5 -94t62 -62.5t84.5 -22t88.5 18.5t70.5 59t46.5 105t16.5 157.5v299h130v-297q0 -119 -24 -211t-70.5 -155t-113.5 -95.5t-153 -32.5
q-87 0 -152.5 30.5t-112 85.5t-75.5 128.5t-42.5 159.5t-13.5 178q0 113 19 207.5t50 172.5t67 141zM780 1232l54 336h174l-116 -336h-112z" />
    <glyph glyph-name="theta1" unicode="&#x3d1;" horiz-adv-x="1186" 
d="M1138 777l8 -149q-43 -16 -97.5 -26t-107.5 -10q-185 0 -322 69t-212 188t-75 267v16q0 110 43.5 187.5t118.5 118.5t171 41q78 0 140.5 -24.5t106.5 -72.5t67 -117.5t23 -158.5v-670q0 -148 -54 -250t-150.5 -154.5t-226.5 -52.5q-101 0 -183.5 32t-142 92t-91.5 144
t-32 189v333l185 2v-335q0 -94 32 -161t91 -102.5t141 -35.5q78 0 133 32t84.5 98.5t29.5 168.5v670q0 56 -9.5 96.5t-29 67t-48 39t-66.5 12.5q-42 0 -75.5 -18.5t-53 -60t-19.5 -110.5v-18q0 -97 48.5 -180t143 -133.5t232.5 -50.5q51 0 102.5 8t94.5 19z" />
    <glyph glyph-name="Upsilon1" unicode="&#x3d2;" horiz-adv-x="1091" 
d="M644 687v-687h-192v687h192zM543 761l230 520q33 74 67.5 114.5t76 57t93.5 16.5q35 0 64.5 -6t60.5 -21l-37 -152q-4 4 -19.5 6.5t-31.5 2.5q-21 0 -40 -7t-35 -24.5t-31 -47.5l-311 -678l-134 2zM327 1282l230 -528l43 -210l-134 -2l-310 678q-14 30 -31 47.5
t-35.5 24.5t-39.5 7q-16 0 -32 -2.5t-21 -6.5l-35 151q31 15 60.5 21.5t63.5 6.5q50 0 92 -15t79 -55.5t70 -116.5z" />
    <glyph glyph-name="omega1" unicode="&#x3d6;" horiz-adv-x="1608" 
d="M1563 1082v-152h-1488v152h1488zM1161 1082h195q36 -63 66.5 -141t49.5 -172.5t19 -207.5q0 -92 -12.5 -178t-38.5 -159.5t-68.5 -128.5t-101.5 -85.5t-138 -30.5q-86 0 -153 32.5t-113 95.5t-70 155t-24 211v249h130v-251q0 -93 16.5 -157.5t46.5 -105t70 -59t88 -18.5
q40 0 70 22t51.5 62t35 94t20 118t6.5 134q-4 136 -44.5 266.5t-100.5 254.5zM262 1082h195q-60 -124 -101 -254.5t-44 -266.5q0 -70 6.5 -134t20 -117.5t35 -94t51.5 -62.5t70 -22q48 0 88 18.5t70 59t46.5 105t16.5 157.5v251h130v-249q0 -119 -24 -211t-70.5 -155
t-113.5 -95.5t-153 -32.5q-78 0 -137.5 30.5t-101.5 85.5t-68.5 128.5t-39 159.5t-12.5 178q0 113 19 207.5t50.5 172.5t66.5 141z" />
    <glyph glyph-name="uni0400" unicode="&#x400;" horiz-adv-x="1164" 
d="M1094 157v-157h-771v157h771zM362 1456v-1456h-193v1456h193zM992 830v-157h-669v157h669zM1084 1456v-158h-761v158h761zM531 1858l193 -294h-159l-258 294h224z" />
    <glyph glyph-name="uni0401" unicode="&#x401;" horiz-adv-x="1164" 
d="M1094 157v-157h-771v157h771zM362 1456v-1456h-193v1456h193zM992 830v-157h-669v157h669zM1084 1456v-158h-761v158h761zM297 1693q0 45 28 76t81 31q54 0 82 -31t28 -76q0 -43 -28 -73.5t-82 -30.5q-53 0 -81 30.5t-28 73.5zM728 1691q0 45 27.5 76t81.5 31
q53 0 81.5 -31t28.5 -76q0 -43 -28.5 -73.5t-81.5 -30.5q-54 0 -81.5 30.5t-27.5 73.5z" />
    <glyph glyph-name="uni0402" unicode="&#x402;" horiz-adv-x="1536" 
d="M573 650v167q54 21 120 38t131 27t115 10q162 0 278 -53.5t178.5 -156t62.5 -249.5q0 -104 -31.5 -186.5t-93.5 -140t-155.5 -88t-217.5 -30.5l-2 151q86 0 145 21t94.5 60t51.5 93t16 119q0 95 -37 160t-109.5 99t-180.5 34q-63 0 -126 -9t-123.5 -25.5t-115.5 -40.5z
M650 1456v-1456h-192v1456h192zM1173 1456v-158h-1130v158h1130z" />
    <glyph glyph-name="uni0403" unicode="&#x403;" horiz-adv-x="1139" 
d="M1072 1456v-158h-702v-1298h-192v1456h894zM523 1564l194 294h223l-268 -294h-149z" />
    <glyph glyph-name="uni0404" unicode="&#x404;" horiz-adv-x="1381" 
d="M886 814v-157h-597v157h597zM1051 463h194q-15 -138 -79.5 -247t-181.5 -172.5t-291 -63.5q-129 0 -234 48t-180 136.5t-115.5 213t-40.5 277.5v144q0 153 40.5 278t117 214t185 137t244.5 48q165 0 278.5 -62t177.5 -171.5t79 -253.5h-193q-14 102 -52 175.5t-108 113.5
t-182 40q-97 0 -170.5 -37t-123 -105.5t-74.5 -163.5t-25 -211v-146q0 -86 14.5 -163.5t43.5 -142.5t74 -112.5t105.5 -73.5t138.5 -26q122 0 195 38.5t110.5 111.5t52.5 176z" />
    <glyph glyph-name="uni0405" unicode="&#x405;" horiz-adv-x="1216" 
d="M945 368q0 51 -15.5 90.5t-54 71.5t-106 61t-170.5 59q-108 32 -195 71.5t-149 90.5t-95 117t-33 151t35 157t100.5 125.5t156.5 83.5t203 30q164 0 278.5 -62.5t174.5 -163t60 -214.5h-192q0 82 -35 145.5t-106 100t-180 36.5q-103 0 -170 -31t-99.5 -84t-32.5 -121
q0 -46 19.5 -83.5t61 -69.5t106 -59t154.5 -52q124 -35 214 -78t148.5 -96.5t87 -121t28.5 -152.5q0 -89 -36 -161t-103 -123t-160.5 -78.5t-208.5 -27.5q-101 0 -198.5 28t-177 84t-127 138.5t-47.5 191.5h192q0 -75 29 -128.5t79.5 -88.5t115 -51.5t134.5 -16.5
q101 0 171 28t106.5 80t36.5 123z" />
    <glyph glyph-name="uni0406" unicode="&#x406;" horiz-adv-x="557" 
d="M376 1456v-1456h-193v1456h193z" />
    <glyph glyph-name="uni0407" unicode="&#x407;" horiz-adv-x="557" 
d="M376 1456v-1456h-193v1456h193zM-43 1693q0 45 28 76t81 31q54 0 82 -31t28 -76q0 -43 -28 -73.5t-82 -30.5q-53 0 -81 30.5t-28 73.5zM388 1691q0 45 27.5 76t81.5 31q53 0 81.5 -31t28.5 -76q0 -43 -28.5 -73.5t-81.5 -30.5q-54 0 -81.5 30.5t-27.5 73.5z" />
    <glyph glyph-name="uni0408" unicode="&#x408;" horiz-adv-x="1130" 
d="M780 425v1031h192v-1031q0 -144 -59 -243t-162.5 -150.5t-237.5 -51.5t-238 46t-163 140t-59 237h193q0 -92 34 -151t94.5 -87t138.5 -28q76 0 136.5 32.5t95.5 97t35 158.5z" />
    <glyph glyph-name="uni0409" unicode="&#x409;" horiz-adv-x="2194" 
d="M375 1456h192l-33 -713q-7 -154 -23.5 -274.5t-46.5 -209t-78 -146t-117.5 -85.5t-166.5 -28h-52v157l40 3q56 4 96.5 25.5t69 65.5t46.5 114t28.5 171.5t16.5 237.5zM1097 1456v-158h-656v158h656zM1217 892h397q160 0 269.5 -58t166.5 -159t57 -230q0 -96 -32 -177
t-95 -141.5t-154.5 -93.5t-211.5 -33h-544v1456h193v-1299h351q107 0 173.5 42t97.5 108.5t31 139.5t-31 138.5t-97.5 107t-173.5 41.5h-397v158z" />
    <glyph glyph-name="uni040A" unicode="&#x40a;" horiz-adv-x="2213" 
d="M1115 825v-157h-775v157h775zM371 1456v-1456h-193v1456h193zM1235 847h397q160 0 269.5 -53.5t166.5 -147.5t57 -218q0 -93 -32 -171t-95 -135.5t-154.5 -89.5t-211.5 -32h-544v1456h193v-1290h351q107 0 173.5 37t97.5 97.5t31 129.5t-31 128t-97.5 95.5t-173.5 36.5
h-397v157z" />
    <glyph glyph-name="uni040B" unicode="&#x40b;" horiz-adv-x="1667" 
d="M1492 0h-192v456q0 113 -33.5 176.5t-100.5 89.5t-168 26q-60 0 -116.5 -5t-110.5 -14t-106.5 -21.5t-103.5 -28.5v159q50 15 98 27.5t99.5 21.5t110.5 14t129 5q155 0 265.5 -44.5t169.5 -143t59 -262.5v-456zM663 1456v-1456h-193v1456h193zM1191 1456v-158h-1129v158
h1129z" />
    <glyph glyph-name="uni040C" unicode="&#x40c;" horiz-adv-x="1285" 
d="M362 1456v-1456h-193v1456h193zM1241 1456l-605 -679l-340 -353l-32 206l256 282l489 544h232zM1055 0l-539 710l115 153l654 -863h-230zM503 1547l194 294h223l-268 -294h-149z" />
    <glyph glyph-name="uni040D" unicode="&#x40d;" horiz-adv-x="1461" 
d="M370 334l717 1122h193v-1456h-193v1123l-717 -1123h-192v1456h192v-1122zM645 1858l193 -294h-159l-258 294h224z" />
    <glyph glyph-name="uni040E" unicode="&#x40e;" horiz-adv-x="1288" 
d="M620 483l385 973h222l-515 -1213q-22 -51 -49 -98.5t-66 -84.5t-96.5 -59t-142.5 -22q-24 0 -57 2.5t-43 5.5l6 154q11 -2 43 -3.5t47 -1.5q57 0 90 23t53.5 58.5t37.5 72.5zM293 1456l405 -907l48 -179l-162 -12l-507 1098h216zM795 1817h150q0 -78 -36 -138.5
t-103 -94.5t-159 -34q-139 0 -219.5 74.5t-80.5 192.5h150q0 -59 34 -104t116 -45q80 0 114 45t34 104z" />
    <glyph glyph-name="uni040F" unicode="&#x40f;" horiz-adv-x="1460" 
d="M176 0v1456h194v-1299h717v1299h193v-1456h-1104zM831 138v-497h-192v497h192z" />
    <glyph glyph-name="uni0410" unicode="&#x410;" horiz-adv-x="1336" 
d="M708 1327l-482 -1327h-197l555 1456h127zM1112 0l-483 1327l-3 129h127l557 -1456h-198zM1087 539v-158h-818v158h818z" />
    <glyph glyph-name="uni0411" unicode="&#x411;" horiz-adv-x="1291" 
d="M1057 1456v-158h-702v-1298h-192v1456h894zM310 863h397q160 0 270 -53.5t167 -149.5t57 -225q0 -96 -32 -175.5t-95 -138t-155 -90t-212 -31.5h-544v1456h193v-1299h351q107 0 173.5 39.5t97.5 103.5t31 137t-31 134t-97.5 97.5t-173.5 36.5h-397v158z" />
    <glyph glyph-name="uni0412" unicode="&#x412;" horiz-adv-x="1276" 
d="M688 681h-369l-2 155h335q83 0 145 28t96.5 80.5t34.5 125.5q0 80 -30.5 130.5t-93 74t-158.5 23.5h-284v-1298h-193v1456h477q112 0 200 -22.5t149.5 -70t93.5 -120.5t32 -175q0 -90 -46 -162.5t-127.5 -118.5t-190.5 -59zM679 0h-436l109 157h327q92 0 156.5 32
t98.5 90.5t34 138.5q0 81 -29 140t-91 91t-160 32h-275l2 155h376l41 -56q105 -9 178 -59.5t111.5 -128.5t38.5 -172q0 -136 -59.5 -229.5t-167.5 -142t-254 -48.5z" />
    <glyph glyph-name="uni0413" unicode="&#x413;" horiz-adv-x="1139" 
d="M1072 1456v-158h-702v-1298h-192v1456h894z" />
    <glyph glyph-name="uni0414" unicode="&#x414;" horiz-adv-x="1540" 
d="M1314 157v-157h-1102v157h1102zM243 157v-515h-191l-1 515h192zM1482 157l-2 -514h-191v514h193zM1125 1456v-158h-638v158h638zM1291 1456v-1456h-192v1456h192zM421 1456h193l-30 -586q-6 -132 -25 -243.5t-47 -203.5t-64 -164.5t-77 -125t-85.5 -86t-89.5 -47.5h-88
v157h62q26 28 59.5 81t67 137.5t59 206.5t34.5 288z" />
    <glyph glyph-name="uni0415" unicode="&#x415;" horiz-adv-x="1164" 
d="M1094 157v-157h-771v157h771zM362 1456v-1456h-193v1456h193zM992 830v-157h-669v157h669zM1084 1456v-158h-761v158h761z" />
    <glyph glyph-name="uni0416" unicode="&#x416;" horiz-adv-x="1859" 
d="M586 665l-520 791h226l387 -631h274l-31 -160h-336zM690 680l-423 -680h-240l541 846zM1036 1456v-1456h-191v1456h191zM1808 1456l-522 -791h-326l-30 160h264l387 631h227zM1606 0l-422 680l123 166l539 -846h-240z" />
    <glyph glyph-name="uni0417" unicode="&#x417;" horiz-adv-x="1216" 
d="M615 699h-173v123h166q110 0 178 31t99 86t31 127q0 69 -34 126.5t-105 92t-183 34.5q-84 0 -152 -31.5t-108 -87t-40 -127.5h-193q0 93 39 167.5t107 127t157.5 80.5t189.5 28q117 0 212 -26.5t163 -78.5t104 -129t36 -179q0 -75 -35 -141t-100 -116t-156 -78.5
t-203 -28.5zM442 784h173q123 0 219 -25t162 -73t100.5 -118.5t34.5 -161.5q0 -102 -39.5 -181t-111.5 -134t-170.5 -83t-215.5 -28q-94 0 -185.5 24.5t-165.5 76t-118.5 131.5t-44.5 192h193q0 -73 40.5 -134t112.5 -97.5t168 -36.5q110 0 186.5 34.5t117 95t40.5 136.5
q0 67 -21.5 116.5t-63 81.5t-103 47.5t-142.5 15.5h-166v121z" />
    <glyph glyph-name="uni0418" unicode="&#x418;" horiz-adv-x="1461" 
d="M370 334l717 1122h193v-1456h-193v1123l-717 -1123h-192v1456h192v-1122z" />
    <glyph glyph-name="uni0419" unicode="&#x419;" horiz-adv-x="1461" 
d="M370 334l717 1122h193v-1456h-193v1123l-717 -1123h-192v1456h192v-1122zM882 1817h150q0 -78 -36 -138.5t-103 -94.5t-159 -34q-139 0 -219.5 74.5t-80.5 192.5h150q0 -59 34 -104t116 -45q80 0 114 45t34 104z" />
    <glyph glyph-name="uni041A" unicode="&#x41a;" horiz-adv-x="1316" 
d="M371 1456v-1456h-193v1456h193zM1268 1456l-632 -801h-342l-30 160h257l508 641h239zM1074 0l-547 680l108 169l675 -849h-236z" />
    <glyph glyph-name="uni041B" unicode="&#x41b;" horiz-adv-x="1450" 
d="M1105 1456v-158h-666v158h666zM1271 1456v-1456h-193v1456h193zM373 1456h192l-33 -713q-7 -154 -23.5 -274.5t-46.5 -209t-78 -146t-117.5 -85.5t-166.5 -28h-52v157l40 3q56 4 96.5 25.5t69 65.5t46.5 114t28.5 171.5t16.5 237.5z" />
    <glyph glyph-name="uni041C" unicode="&#x41c;" horiz-adv-x="1788" 
d="M230 1456h187l477 -1187l476 1187h188l-592 -1456h-146zM169 1456h165l27 -888v-568h-192v1456zM1453 1456h165v-1456h-192v568z" />
    <glyph glyph-name="uni041D" unicode="&#x41d;" horiz-adv-x="1461" 
d="M1120 830v-157h-788v157h788zM362 1456v-1456h-193v1456h193zM1288 1456v-1456h-192v1456h192z" />
    <glyph glyph-name="uni041E" unicode="&#x41e;" horiz-adv-x="1409" 
d="M1290 774v-92q0 -164 -41 -294t-118 -221t-184.5 -139t-240.5 -48q-129 0 -236.5 48t-186 139t-121.5 221t-43 294v92q0 164 42.5 293.5t120.5 221t185.5 139.5t236.5 48q133 0 240.5 -48t185 -139.5t119 -221t41.5 -293.5zM1099 682v94q0 130 -26.5 230t-77.5 168
t-124.5 103t-166.5 35q-90 0 -162.5 -35t-124 -103t-79.5 -168t-28 -230v-94q0 -131 28 -231.5t80.5 -169t125 -103.5t162.5 -35q94 0 167 35t123.5 103.5t76.5 169t26 231.5z" />
    <glyph glyph-name="uni041F" unicode="&#x41f;" horiz-adv-x="1461" 
d="M1281 1456v-1456h-192v1298h-718v-1298h-193v1456h1103z" />
    <glyph glyph-name="uni0420" unicode="&#x420;" horiz-adv-x="1292" 
d="M706 571h-389v157h389q113 0 183 36t102.5 100t32.5 146q0 75 -32.5 141t-102.5 106.5t-183 40.5h-344v-1298h-193v1456h537q165 0 279 -57t173 -157.5t59 -229.5q0 -140 -59 -239t-173 -150.5t-279 -51.5z" />
    <glyph glyph-name="uni0421" unicode="&#x421;" horiz-adv-x="1333" 
d="M1048 463h192q-15 -138 -79 -247t-181 -172.5t-292 -63.5q-128 0 -232.5 48t-179.5 136.5t-115.5 213t-40.5 277.5v145q0 153 40.5 277.5t117 213.5t184.5 137t243 48q165 0 279 -62t177.5 -171.5t78.5 -253.5h-192q-14 102 -52 175.5t-108 113.5t-183 40
q-97 0 -170.5 -37t-123 -105t-74.5 -163t-25 -211v-147q0 -107 22.5 -201t68.5 -165t117 -111.5t168 -40.5q123 0 196 39t110.5 112t53.5 175z" />
    <glyph glyph-name="uni0422" unicode="&#x422;" horiz-adv-x="1222" 
d="M707 1456v-1456h-190v1456h190zM1175 1456v-158h-1125v158h1125z" />
    <glyph glyph-name="uni0423" unicode="&#x423;" horiz-adv-x="1288" 
d="M620 483l385 973h222l-515 -1213q-22 -51 -49 -98.5t-66 -84.5t-96.5 -59t-142.5 -22q-24 0 -57 2.5t-43 5.5l6 154q11 -2 43 -3.5t47 -1.5q57 0 90 23t53.5 58.5t37.5 72.5zM293 1456l405 -907l48 -179l-162 -12l-507 1098h216z" />
    <glyph glyph-name="uni0424" unicode="&#x424;" horiz-adv-x="1581" 
d="M674 1311h241q126 0 233.5 -42.5t188 -120.5t125.5 -185.5t45 -237.5t-45 -238t-125.5 -186.5t-188 -121t-233.5 -42.5h-241q-126 0 -233 42.5t-187.5 120.5t-125 185.5t-44.5 237.5t44.5 237.5t125 186t187.5 121.5t233 43zM674 1159q-131 0 -222 -54.5t-138 -152.5
t-47 -229q0 -99 26.5 -179t78.5 -137t128 -88t174 -31h243q130 0 220.5 54.5t138 153t47.5 229.5q0 98 -27 178t-78.5 137t-127 88t-173.5 31h-243zM888 1516v-1576h-185v1576h185z" />
    <glyph glyph-name="uni0425" unicode="&#x425;" horiz-adv-x="1284" 
d="M294 1456l350 -558l350 558h225l-460 -721l471 -735h-227l-359 569l-359 -569h-227l471 735l-460 721h225z" />
    <glyph glyph-name="uni0426" unicode="&#x426;" horiz-adv-x="1498" 
d="M1432 162l-18 -513h-173v351h-143v162h334zM175 0v1456h194v-1299h717v1299h193v-1456h-1104z" />
    <glyph glyph-name="uni0427" unicode="&#x427;" horiz-adv-x="1402" 
d="M151 1456h193v-455q0 -113 33 -177t100 -90t167 -26q60 0 116.5 5t110.5 14t106.5 22t103.5 28v-158q-49 -15 -97.5 -28t-100 -22t-110 -14t-129.5 -5q-154 0 -264.5 44.5t-169.5 143.5t-59 263v455zM1032 1456h193v-1456h-193v1456z" />
    <glyph glyph-name="uni0428" unicode="&#x428;" horiz-adv-x="1927" 
d="M176 1456h194v-1299h500v1299h192v-1299h497v1299h193v-1456h-1576v1456z" />
    <glyph glyph-name="uni0429" unicode="&#x429;" horiz-adv-x="1984" 
d="M1899 152l-18 -503h-166v351h-141v152h325zM176 1456h194v-1299h500v1299h192v-1299h497v1299h193v-1456h-1576v1456z" />
    <glyph glyph-name="uni042A" unicode="&#x42a;" horiz-adv-x="1554" 
d="M17 1304v152h457v-152h-457zM574 863h396q160 0 270 -53.5t167.5 -149.5t57.5 -225q0 -96 -32.5 -175.5t-95.5 -138t-155 -90t-212 -31.5h-543v1456h192v-1299h351q107 0 173.5 39.5t97.5 103.5t31 137t-31 134t-97.5 97.5t-173.5 36.5h-396v158z" />
    <glyph glyph-name="uni042B" unicode="&#x42b;" horiz-adv-x="1771" 
d="M325 863h397q160 0 270 -53.5t167 -149.5t57 -225q0 -96 -32 -175.5t-95 -138t-155 -90t-212 -31.5h-544v1456h193v-1299h351q107 0 173.5 39.5t97.5 103.5t31 137t-31 134t-97.5 97.5t-173.5 36.5h-397v158zM1585 1456v-1456h-193v1456h193z" />
    <glyph glyph-name="uni042C" unicode="&#x42c;" horiz-adv-x="1285" 
d="M310 863h397q160 0 270 -53.5t167 -149.5t57 -225q0 -96 -32 -175.5t-95 -138t-155 -90t-212 -31.5h-544v1456h193v-1299h351q107 0 173.5 39.5t97.5 103.5t31 137t-31 134t-97.5 97.5t-173.5 36.5h-397v158z" />
    <glyph glyph-name="uni042D" unicode="&#x42d;" horiz-adv-x="1381" 
d="M1100 805v-158h-597v158h597zM148 463h192q16 -103 53.5 -176t110.5 -111.5t196 -38.5q97 0 168 40.5t117 111.5t68.5 165t22.5 201v146q0 93 -16 172.5t-48 143t-79.5 108.5t-110 69t-139.5 24q-112 0 -182.5 -40t-108 -113.5t-52.5 -175.5h-192q15 144 79 253.5
t177.5 171.5t278.5 62q135 0 243 -48t184.5 -137t117 -214t40.5 -278v-144q0 -153 -40.5 -277.5t-115.5 -213t-179.5 -136.5t-232.5 -48q-175 0 -292 63.5t-180.5 172.5t-79.5 247z" />
    <glyph glyph-name="uni042E" unicode="&#x42e;" horiz-adv-x="1831" 
d="M376 1456v-1456h-193v1456h193zM710 789v-152h-346v152h346zM1755 774v-92q0 -164 -41 -294t-118 -221t-184.5 -139t-240.5 -48q-129 0 -236.5 48t-186 139t-121.5 221t-43 294v92q0 164 42.5 293.5t120.5 221t185.5 139.5t236.5 48q133 0 240.5 -48t185 -139.5t119 -221
t41.5 -293.5zM1564 682v94q0 130 -26.5 230t-77.5 168t-124.5 103t-166.5 35q-90 0 -162.5 -35t-124 -103t-79.5 -168t-28 -230v-94q0 -131 28 -231.5t80.5 -169t125 -103.5t162.5 -35q94 0 167 35t123.5 103.5t76.5 169t26 231.5z" />
    <glyph glyph-name="uni042F" unicode="&#x42f;" horiz-adv-x="1304" 
d="M977 567h-409l-95 39q-158 50 -243 153.5t-85 257.5q0 141 62.5 239t178 149t273.5 51h466v-1456h-193v1298h-273q-160 0 -240.5 -76t-80.5 -205q0 -84 35.5 -150t105.5 -104t174 -38h325zM649 667l-354 -667h-205l364 667h195z" />
    <glyph glyph-name="uni0430" unicode="&#x430;" horiz-adv-x="1114" 
d="M779 185v557q0 64 -25.5 111.5t-76.5 73.5t-126 26q-70 0 -122.5 -24t-82 -63t-29.5 -84h-185q0 58 30 115t86.5 103.5t136 74t177.5 27.5q118 0 208.5 -40t142 -120.5t51.5 -201.5v-504q0 -54 9.5 -115t28.5 -105v-16h-193q-14 32 -22 85.5t-8 99.5zM811 656l2 -130
h-187q-79 0 -141 -12.5t-104 -37.5t-64 -62.5t-22 -87.5q0 -51 23 -93t69.5 -66.5t114.5 -24.5q85 0 150 36t103.5 88t41.5 101l79 -89q-7 -42 -38 -93t-82.5 -97.5t-122 -77t-158.5 -30.5q-110 0 -192.5 43t-128 115.5t-45.5 162.5q0 87 34 153.5t98 111t154 67.5t201 23
h215z" />
    <glyph glyph-name="uni0431" unicode="&#x431;" horiz-adv-x="1133" 
d="M835 1553h152q0 -98 -30 -155.5t-81.5 -88.5t-116 -47t-133.5 -31q-86 -18 -159.5 -56.5t-126 -108.5t-77 -182t-13.5 -277v-92h-152v92q0 185 35.5 323t100.5 233t154.5 151t197.5 77q78 15 134 32.5t85.5 47.5t29.5 82zM616 1020q106 0 189 -37t141 -103t88.5 -155.5
t30.5 -194.5v-22q0 -113 -32.5 -209.5t-95 -168t-152 -111.5t-203.5 -40t-203.5 40t-152.5 111.5t-95.5 168t-32.5 209.5v22q0 25 9 49t22.5 49t24.5 53q37 90 101.5 167t155 124.5t205.5 47.5zM580 869q-102 0 -167.5 -47t-97.5 -124.5t-32 -167.5v-22q0 -76 18 -144
t54.5 -120.5t93 -82.5t133.5 -30t133 30t92 82.5t54 120.5t18 144v22q0 68 -18 129t-54.5 108t-93 74.5t-133.5 27.5z" />
    <glyph glyph-name="uni0432" unicode="&#x432;" horiz-adv-x="1171" 
d="M649 476h-355l-2 148h290q86 0 143.5 17t86.5 51t29 84q0 39 -16.5 68.5t-49.5 49t-81.5 29t-113.5 9.5h-237v-932h-185v1082h422q103 0 185.5 -18t141 -54.5t89.5 -92.5t31 -132q0 -49 -20 -93t-59 -78t-96 -55.5t-131 -27.5zM649 0h-422l92 150h330q77 0 128 19.5
t76.5 56t25.5 87.5t-25.5 87.5t-76.5 56t-128 19.5h-281l2 148h351l67 -56q89 -7 151 -44t94 -93.5t32 -122.5q0 -76 -28.5 -134t-82.5 -96.5t-131 -58t-174 -19.5z" />
    <glyph glyph-name="uni0433" unicode="&#x433;" horiz-adv-x="860" 
d="M840 1082v-153h-500v-929h-185v1082h685z" />
    <glyph glyph-name="uni0434" unicode="&#x434;" horiz-adv-x="1236" 
d="M336 1082h185l-16 -405q-6 -154 -35 -266t-74 -190.5t-100.5 -131.5t-114.5 -89h-92l5 151l38 1q33 39 64 80.5t57 99t43.5 141t22.5 204.5zM382 1082h651v-1082h-185v911h-466v171zM47 152h1125v-471h-185v319h-755v-319h-186z" />
    <glyph glyph-name="uni0435" unicode="&#x435;" horiz-adv-x="1086" 
d="M590 -20q-113 0 -204.5 38.5t-157 108.5t-100.5 166t-35 210v42q0 132 39 235.5t106 175.5t152 109t176 37q116 0 200.5 -40t138.5 -111.5t80 -168t26 -210.5v-83h-808v151h623v14q-4 72 -29.5 140t-80.5 112t-150 44q-63 0 -116 -26.5t-91 -78.5t-59 -127t-21 -173v-42
q0 -77 21.5 -144.5t63 -118.5t101 -80t135.5 -29q98 0 166 40t119 107l112 -89q-35 -53 -89 -101t-132.5 -78t-185.5 -30z" />
    <glyph glyph-name="uni0436" unicode="&#x436;" horiz-adv-x="1569" 
d="M469 471l-410 611h223l280 -448h216l-27 -163h-282zM570 490l-314 -490h-234l431 624zM873 1082v-1082h-185v1082h185zM1504 1082l-410 -611h-282l-29 163h217l280 448h224zM1306 0l-315 490l119 134l430 -624h-234z" />
    <glyph glyph-name="uni0437" unicode="&#x437;" horiz-adv-x="1040" 
d="M545 517h-199v114h184q77 0 122 19.5t64 54.5t19 82q0 42 -21.5 79.5t-68.5 61t-126 23.5q-64 0 -116 -22.5t-82.5 -61t-30.5 -86.5h-185q0 99 56.5 170.5t151 110.5t206.5 39q94 0 168.5 -20.5t126.5 -60t79.5 -98t27.5 -135.5q0 -55 -26 -104t-75 -86.5t-118.5 -58.5
t-156.5 -21zM346 587h199q97 0 171 -18.5t124 -54.5t75.5 -88.5t25.5 -120.5q0 -76 -30.5 -136.5t-86.5 -102.5t-133.5 -64t-171.5 -22q-105 0 -204 36t-163 111.5t-64 192.5h185q0 -49 31 -93t86.5 -71t128.5 -27q78 0 130 24t78.5 64t26.5 87q0 61 -24 98t-73.5 54.5
t-126.5 17.5h-184v113z" />
    <glyph glyph-name="uni0438" unicode="&#x438;" horiz-adv-x="1182" 
d="M341 293l499 789h186v-1082h-186v789l-499 -789h-184v1082h184v-789z" />
    <glyph glyph-name="uni0439" unicode="&#x439;" horiz-adv-x="1182" 
d="M341 293l499 789h186v-1082h-186v789l-499 -789h-184v1082h184v-789zM739 1474h150q0 -78 -36 -138.5t-103 -94.5t-159 -34q-139 0 -219.5 74.5t-80.5 192.5h150q0 -59 34 -104t116 -45q80 0 114 45t34 104z" />
    <glyph glyph-name="uni043A" unicode="&#x43a;" horiz-adv-x="1107" 
d="M342 1082v-1082h-185v1082h185zM1052 1082l-513 -620h-259l-28 162h212l363 458h225zM853 0l-398 490l119 134l514 -624h-235z" />
    <glyph glyph-name="uni043B" unicode="&#x43b;" horiz-adv-x="1184" 
d="M864 1082v-153h-523v153h523zM1027 1082v-1082h-185v1082h185zM296 1082h186l-28 -522q-7 -121 -22.5 -213.5t-42 -158.5t-66 -107.5t-94.5 -61t-127 -19.5h-58v163l40 3q43 3 73.5 20t51.5 50.5t34.5 86.5t21 126t11.5 170z" />
    <glyph glyph-name="uni043C" unicode="&#x43c;" horiz-adv-x="1519" 
d="M763 246l368 836h178l-482 -1082h-128l-480 1082h178zM343 1082v-1082h-185v1082h185zM1177 0v1082h186v-1082h-186z" />
    <glyph glyph-name="uni043D" unicode="&#x43d;" horiz-adv-x="1181" 
d="M875 613v-150h-572v150h572zM342 1082v-1082h-185v1082h185zM1025 1082v-1082h-186v1082h186z" />
    <glyph glyph-name="uni043E" unicode="&#x43e;" horiz-adv-x="1168" 
d="M92 529v23q0 117 34 217.5t98 175t155 116t204 41.5q114 0 205.5 -41.5t156 -116t98.5 -175t34 -217.5v-23q0 -117 -34 -217t-98.5 -174.5t-155 -116t-204.5 -41.5t-205 41.5t-155.5 116t-98.5 174.5t-34 217zM277 552v-23q0 -81 19 -152.5t57.5 -126.5t96.5 -86.5
t135 -31.5q76 0 133.5 31.5t95.5 86.5t57.5 126.5t19.5 152.5v23q0 80 -19.5 151.5t-58 127t-96 87.5t-134.5 32q-76 0 -133.5 -32t-96 -87.5t-57.5 -127t-19 -151.5z" />
    <glyph glyph-name="uni043F" unicode="&#x43f;" horiz-adv-x="1182" 
d="M862 1082v-153h-547v153h547zM342 1082v-1082h-185v1082h185zM1026 1082v-1082h-186v1082h186z" />
    <glyph glyph-name="uni0440" unicode="&#x440;" horiz-adv-x="1150" 
d="M326 874v-1290h-186v1498h170zM1055 550v-21q0 -118 -28 -218.5t-81.5 -174.5t-131.5 -115t-179 -41q-103 0 -182 34t-134 99t-87.5 156t-44.5 205v112q12 120 45 215t87.5 162.5t132.5 103t180 35.5t181 -39.5t133 -112.5t81.5 -174.5t27.5 -225.5zM869 529v21
q0 81 -17 152.5t-52.5 126t-90.5 86t-131 31.5q-70 0 -121.5 -24t-87.5 -64.5t-58.5 -92t-33.5 -106.5v-259q20 -70 56 -131.5t96 -99t151 -37.5q75 0 129.5 31.5t90 86.5t52.5 126.5t17 152.5z" />
    <glyph glyph-name="uni0441" unicode="&#x441;" horiz-adv-x="1072" 
d="M574 132q66 0 122 27t92 74.5t41 108.5h176q-5 -96 -64.5 -178.5t-155.5 -133t-211 -50.5q-122 0 -212.5 43t-150 118t-89 172.5t-29.5 206.5v42q0 109 29.5 206.5t89 172.5t150 118t212.5 43q127 0 222 -51.5t149.5 -140t59.5 -200.5h-176q-5 67 -37.5 121t-88 86.5
t-129.5 32.5q-85 0 -142.5 -33.5t-91 -90t-48 -125t-14.5 -139.5v-42q0 -71 14 -140t47.5 -125t91 -89.5t143.5 -33.5z" />
    <glyph glyph-name="uni0442" unicode="&#x442;" horiz-adv-x="985" 
d="M582 1082v-1082h-186v1082h186zM945 1082v-150h-905v150h905z" />
    <glyph glyph-name="uni0443" unicode="&#x443;" horiz-adv-x="969" 
d="M445 112l301 970h198l-434 -1249q-15 -40 -39.5 -86.5t-62.5 -88.5t-91.5 -68.5t-127.5 -26.5q-22 0 -56 6t-48 10l-1 150q8 -1 25.5 -2.5t24.5 -1.5q63 0 107 16.5t74.5 55t52.5 105.5zM224 1082l281 -840l48 -195l-133 -68l-398 1103h202z" />
    <glyph glyph-name="uni0444" unicode="&#x444;" horiz-adv-x="1486" 
d="M1385 522v-21q0 -114 -25 -209.5t-74.5 -165.5t-122.5 -108.5t-169 -38.5q-79 0 -139 21.5t-101.5 62.5t-66 98.5t-33.5 129.5v480q9 77 33.5 138t66 104t100.5 66t138 23q78 0 140.5 -27.5t110 -78.5t79 -122.5t47.5 -160.5t16 -191zM1200 501v21q0 70 -9.5 133.5
t-29 117t-50.5 93.5t-74.5 62t-99.5 22q-60 0 -99.5 -15t-61.5 -39.5t-32 -51.5v-627q12 -22 35 -41.5t62 -32t98 -12.5q70 0 119.5 28.5t81 79.5t46 118t14.5 144zM100 501v21q0 102 16 191t48 160.5t79.5 122.5t110 78.5t140.5 27.5q77 0 134.5 -23t97.5 -66t64 -104
t34 -138v-461q-9 -76 -33 -137t-64 -104.5t-98.5 -66.5t-136.5 -23q-96 0 -169 38.5t-122.5 108.5t-75 165.5t-25.5 209.5zM286 522v-21q0 -77 13.5 -144t43 -118t77.5 -79.5t118 -28.5q60 0 99 15t62 39t35 50v609q-10 27 -32.5 51.5t-61.5 39.5t-100 15q-70 0 -119 -34
t-78.5 -93t-43 -136.5t-13.5 -164.5zM642 -416v1952h186v-1952h-186z" />
    <glyph glyph-name="uni0445" unicode="&#x445;" horiz-adv-x="1016" 
d="M266 1082l237 -394l240 394h217l-354 -534l365 -548h-214l-250 406l-250 -406h-215l364 548l-353 534h213z" />
    <glyph glyph-name="uni0446" unicode="&#x446;" horiz-adv-x="1214" 
d="M157 0v1082h185v-930h498v930h186v-1082h-869zM1154 152l-18 -473h-165v321h-141v152h324z" />
    <glyph glyph-name="uni0447" unicode="&#x447;" horiz-adv-x="1114" 
d="M957 1082v-1082h-185v1082h185zM894 585v-152q-56 -21 -113.5 -37.5t-121 -26t-137.5 -9.5q-128 0 -222 44.5t-145 135t-51 228.5v316h185v-316q0 -90 27 -146t79 -82.5t127 -26.5q72 0 135.5 9.5t122 25.5t114.5 37z" />
    <glyph glyph-name="uni0448" unicode="&#x448;" horiz-adv-x="1657" 
d="M157 1082h185v-930h396v930h186v-930h395v930h185v-1082h-1347v1082z" />
    <glyph glyph-name="uni0449" unicode="&#x449;" horiz-adv-x="1695" 
d="M1645 152l-18 -473h-165v321h-141v152h324zM146 1082h185v-930h396v930h186v-930h395v930h185v-1082h-1347v1082z" />
    <glyph glyph-name="uni044A" unicode="&#x44a;" horiz-adv-x="1271" 
d="M505 1082v-152h-475v152h475zM487 710h325q131 0 221 -45.5t136.5 -125t46.5 -180.5q0 -75 -26 -140.5t-77.5 -114.5t-127 -76.5t-173.5 -27.5h-461v1082h186v-930h275q80 0 127.5 29t68.5 75t21 96q0 49 -21 96t-68.5 78.5t-127.5 31.5h-325v152z" />
    <glyph glyph-name="uni044B" unicode="&#x44b;" horiz-adv-x="1590" 
d="M293 710h325q131 0 221 -45.5t136.5 -125t46.5 -180.5q0 -75 -26 -140.5t-77.5 -114.5t-127 -76.5t-173.5 -27.5h-460v1082h185v-930h275q80 0 128 29t69 75t21 96q0 49 -21 96t-69 78.5t-128 31.5h-325v152zM1407 1082v-1082h-185v1082h185z" />
    <glyph glyph-name="uni044C" unicode="&#x44c;" horiz-adv-x="1112" 
d="M293 710h325q131 0 221 -45.5t136.5 -125t46.5 -180.5q0 -75 -26 -140.5t-77.5 -114.5t-127 -76.5t-173.5 -27.5h-460v1082h185v-930h275q80 0 128 29t69 75t21 96q0 49 -21 96t-69 78.5t-128 31.5h-325v152z" />
    <glyph glyph-name="uni044D" unicode="&#x44d;" horiz-adv-x="1102" 
d="M520 950q-61 0 -116.5 -27t-91 -74.5t-35.5 -109.5h-177q0 97 60 179.5t156 133t204 50.5q114 0 202 -43t148.5 -118t91.5 -172.5t31 -206.5v-42q0 -109 -31.5 -206.5t-92 -173t-148 -118.5t-200.5 -43q-121 0 -216.5 52t-150 140.5t-54.5 199.5h177q0 -67 32.5 -121.5
t87.5 -86.5t124 -32q75 0 129.5 34t89.5 90t51.5 125.5t16.5 139.5v42q0 71 -16.5 140t-51 125t-89 89.5t-131.5 33.5zM898 627v-151h-499v151h499z" />
    <glyph glyph-name="uni044E" unicode="&#x44e;" horiz-adv-x="1672" 
d="M757 623v-151h-575v151h575zM343 1082v-1082h-185v1082h185zM599 529v23q0 117 34 217.5t98.5 175t155 116t203.5 41.5q115 0 206 -41.5t155.5 -116t98.5 -175t34 -217.5v-23q0 -117 -34 -217t-98 -174.5t-155 -116t-205 -41.5t-205 41.5t-155.5 116t-98.5 174.5t-34 217
zM785 552v-23q0 -81 19 -152.5t57.5 -126.5t96 -86.5t134.5 -31.5t134.5 31.5t95.5 86.5t57.5 126.5t19.5 152.5v23q0 80 -19.5 151.5t-58 127t-96.5 87.5t-135 32q-76 0 -133 -32t-95.5 -87.5t-57.5 -127t-19 -151.5z" />
    <glyph glyph-name="uni044F" unicode="&#x44f;" horiz-adv-x="1124" 
d="M360 516h200l-313 -516h-200zM515 1082h452v-1082h-185v932h-267q-79 0 -129 -26.5t-73 -68.5t-23 -87q0 -44 21 -84.5t66 -66.5t116 -26h339v-152h-339q-93 0 -165 25t-122 69.5t-76 105t-26 131.5t27.5 131t80 105t129 69.5t174.5 24.5z" />
    <glyph glyph-name="uni0450" unicode="&#x450;" horiz-adv-x="1086" 
d="M590 -20q-113 0 -204.5 38.5t-157 108.5t-100.5 166t-35 210v42q0 132 39 235.5t106 175.5t152 109t176 37q116 0 200.5 -40t138.5 -111.5t80 -168t26 -210.5v-83h-808v151h623v14q-4 72 -29.5 140t-80.5 112t-150 44q-63 0 -116 -26.5t-91 -78.5t-59 -127t-21 -173v-42
q0 -77 21.5 -144.5t63 -118.5t101 -80t135.5 -29q98 0 166 40t119 107l112 -89q-35 -53 -89 -101t-132.5 -78t-185.5 -30zM477 1536l193 -294h-159l-258 294h224z" />
    <glyph glyph-name="uni0451" unicode="&#x451;" horiz-adv-x="1086" 
d="M590 -20q-113 0 -204.5 38.5t-157 108.5t-100.5 166t-35 210v42q0 132 39 235.5t106 175.5t152 109t176 37q116 0 200.5 -40t138.5 -111.5t80 -168t26 -210.5v-83h-808v151h623v14q-4 72 -29.5 140t-80.5 112t-150 44q-63 0 -116 -26.5t-91 -78.5t-59 -127t-21 -173v-42
q0 -77 21.5 -144.5t63 -118.5t101 -80t135.5 -29q98 0 166 40t119 107l112 -89q-35 -53 -89 -101t-132.5 -78t-185.5 -30zM243 1371q0 45 28 76t81 31q54 0 82 -31t28 -76q0 -43 -28 -73.5t-82 -30.5q-53 0 -81 30.5t-28 73.5zM674 1369q0 45 27.5 76t81.5 31q53 0 81.5 -31
t28.5 -76q0 -43 -28.5 -73.5t-81.5 -30.5q-54 0 -81.5 30.5t-27.5 73.5z" />
    <glyph glyph-name="uni0452" unicode="&#x452;" horiz-adv-x="1128" 
d="M806 454h186v-543q0 -112 -38.5 -190t-110.5 -118t-173 -40q-31 0 -58 3.5t-57 13.5l15 148q15 -6 50 -9.5t50 -3.5q43 0 73.5 23.5t46.5 67.5t16 105v543zM326 1536v-1536h-185v1536h185zM282 582l-77 3q1 111 33 205.5t90 164.5t138.5 108.5t178.5 38.5q80 0 144 -21.5
t109.5 -68.5t69.5 -121.5t24 -181.5v-709h-186v711q0 85 -25 136.5t-73 75t-118 23.5q-69 0 -125.5 -29t-97 -80t-63 -116.5t-22.5 -138.5zM612 1361v-152h-637v152h637z" />
    <glyph glyph-name="uni0453" unicode="&#x453;" horiz-adv-x="860" 
d="M840 1082v-153h-500v-929h-185v1082h685zM329 1221l194 294h223l-268 -294h-149z" />
    <glyph glyph-name="uni0454" unicode="&#x454;" horiz-adv-x="1102" 
d="M695 616v-152h-554v152h554zM585 132q66 0 122 27t92 74.5t41 108.5h175q-5 -96 -64.5 -178.5t-155 -133t-210.5 -50.5q-122 0 -213 43t-150.5 118t-89 172.5t-29.5 206.5v42q0 109 29.5 206.5t89.5 172.5t150.5 118t211.5 43q127 0 222 -51.5t149.5 -140t59.5 -200.5
h-175q-5 67 -37.5 121t-88 86.5t-130.5 32.5q-85 0 -142.5 -33.5t-91 -90t-48 -125t-14.5 -139.5v-42q0 -71 14.5 -140t48 -125t91 -89.5t143.5 -33.5z" />
    <glyph glyph-name="uni0455" unicode="&#x455;" horiz-adv-x="1057" 
d="M771 287q0 40 -17.5 74.5t-71 63t-160.5 49.5q-90 19 -162.5 45t-123 63t-77.5 87t-27 117q0 64 28.5 121t81 101t126.5 69t165 25q130 0 222 -46t141 -122.5t49 -169.5h-185q0 45 -26.5 87.5t-77 70.5t-123.5 28q-77 0 -124.5 -23.5t-69 -59.5t-21.5 -76
q0 -30 10.5 -53.5t37.5 -43t76 -36.5t125 -34q133 -30 219 -72t128 -103t42 -148q0 -71 -29.5 -130t-85 -101.5t-132 -66t-171.5 -23.5q-143 0 -242 51t-150 132t-51 171h186q4 -76 44 -120.5t98 -63t115 -18.5q76 0 127.5 20t78.5 55t27 80z" />
    <glyph glyph-name="uni0456" unicode="&#x456;" horiz-adv-x="498" 
d="M342 1082v-1082h-186v1082h186zM142 1369q0 45 27.5 76t81.5 31q53 0 81.5 -31t28.5 -76q0 -43 -28.5 -73.5t-81.5 -30.5q-54 0 -81.5 30.5t-27.5 73.5z" />
    <glyph glyph-name="uni0457" unicode="&#x457;" horiz-adv-x="507" 
d="M341 1082v-1082h-185v1082h185zM-70 1369q0 45 28 76t81 31q54 0 82 -31t28 -76q0 -43 -28 -73.5t-82 -30.5q-53 0 -81 30.5t-28 73.5zM361 1367q0 45 27.5 76t81.5 31q53 0 81.5 -31t28.5 -76q0 -43 -28.5 -73.5t-81.5 -30.5q-54 0 -81.5 30.5t-27.5 73.5z" />
    <glyph glyph-name="uni0458" unicode="&#x458;" horiz-adv-x="490" 
d="M146 1082h186v-1211q0 -99 -31.5 -168t-94 -104.5t-157.5 -35.5q-25 0 -58.5 5t-56.5 12l1 149q19 -4 43 -6.5t42 -2.5q41 0 69 15t42.5 48t14.5 88v1211zM127 1369q0 45 28 76t81 31q54 0 82 -31t28 -76q0 -43 -28 -73.5t-82 -30.5q-53 0 -81 30.5t-28 73.5z" />
    <glyph glyph-name="uni0459" unicode="&#x459;" horiz-adv-x="1737" 
d="M292 1082h185l-28 -522q-7 -121 -22 -213.5t-41.5 -158.5t-66.5 -107.5t-94.5 -61t-126.5 -19.5h-59v163l41 3q42 3 72.5 20t51.5 50.5t34.5 86.5t21.5 126t12 170zM828 1082v-153h-497v153h497zM941 670h325q132 0 222 -43t136 -118t46 -170q0 -71 -26 -132.5
t-77.5 -108t-126.5 -72.5t-174 -26h-460v1082h185v-932h275q81 0 128.5 29t68.5 73t21 89q0 44 -21 85t-68.5 67t-128.5 26h-325v151z" />
    <glyph glyph-name="uni045A" unicode="&#x45a;" horiz-adv-x="1764" 
d="M875 673v-150h-572v150h572zM342 1082v-1082h-185v1082h185zM974 670h326q131 0 221 -43t136.5 -118t46.5 -170q0 -71 -26 -132.5t-77.5 -108t-127 -72.5t-173.5 -26h-461v1082h186v-932h275q80 0 127.5 29t68.5 73t21 89q0 44 -21 85t-68.5 67t-127.5 26h-326v151z" />
    <glyph glyph-name="uni045B" unicode="&#x45b;" horiz-adv-x="1161" 
d="M326 1536v-1536h-185v1536h185zM282 582l-77 3q1 111 33 205.5t90 164.5t138.5 108.5t178.5 38.5q80 0 144 -21.5t109.5 -68.5t69.5 -121.5t24 -181.5v-709h-186v711q0 85 -25 136.5t-73 75t-118 23.5q-69 0 -125.5 -29t-97 -80t-63 -116.5t-22.5 -138.5zM634 1366v-152
h-637v152h637z" />
    <glyph glyph-name="uni045C" unicode="&#x45c;" horiz-adv-x="1107" 
d="M342 1082v-1082h-185v1082h185zM1052 1082l-513 -620h-259l-28 162h212l363 458h225zM853 0l-398 490l119 134l514 -624h-235zM439 1220l194 294h223l-268 -294h-149z" />
    <glyph glyph-name="uni045D" unicode="&#x45d;" horiz-adv-x="1182" 
d="M341 293l499 789h186v-1082h-186v789l-499 -789h-184v1082h184v-789zM502 1515l193 -294h-159l-258 294h224z" />
    <glyph glyph-name="uni045E" unicode="&#x45e;" horiz-adv-x="969" 
d="M445 112l301 970h198l-434 -1249q-15 -40 -39.5 -86.5t-62.5 -88.5t-91.5 -68.5t-127.5 -26.5q-22 0 -56 6t-48 10l-1 150q8 -1 25.5 -2.5t24.5 -1.5q63 0 107 16.5t74.5 55t52.5 105.5zM224 1082l281 -840l48 -195l-133 -68l-398 1103h202zM657 1495h150
q0 -78 -36 -138.5t-103 -94.5t-159 -34q-139 0 -219.5 74.5t-80.5 192.5h150q0 -59 34 -104t116 -45q80 0 114 45t34 104z" />
    <glyph glyph-name="uni045F" unicode="&#x45f;" horiz-adv-x="1182" 
d="M501 152h186v-508h-186v508zM157 1082h185v-930h498v930h186v-1082h-869v1082z" />
    <glyph glyph-name="uni0460" unicode="&#x460;" horiz-adv-x="1801" 
d="M806 1456h156v-1058q0 -105 -30 -184t-84 -131t-127 -78t-160 -26t-161 26t-128.5 78t-85 131t-30.5 184v1058h194v-1058q0 -66 15.5 -115t44 -82t67 -49t84.5 -16q71 0 126.5 29t87 87t31.5 146v1058zM1461 1456h193v-1058q0 -140 -55 -233.5t-150 -139.5t-216 -46
q-82 0 -152.5 26t-122 78t-80.5 131t-29 184v1058h156v-1058q0 -66 17 -115t47.5 -82t72.5 -49t91 -16q66 0 117.5 29t81 87t29.5 146v1058z" />
    <glyph glyph-name="uni0461" unicode="&#x461;" horiz-adv-x="1580" 
d="M698 1082h150v-728q0 -94 -26.5 -164.5t-75 -117.5t-114 -70t-143.5 -23t-143.5 23t-114 70t-75.5 117.5t-27 164.5v728h186v-728q0 -56 13 -98t36.5 -69.5t55 -41.5t69.5 -14q60 0 107 24.5t74.5 74t27.5 124.5v728zM1269 1082h185v-728q0 -126 -49 -209t-134.5 -124.5
t-193.5 -41.5q-74 0 -136.5 23t-108.5 70t-71.5 117.5t-25.5 164.5v728h150v-728q0 -56 14 -98t40 -69.5t61 -41.5t77 -14q41 0 76 14t61 41.5t40.5 69.5t14.5 98v728z" />
    <glyph glyph-name="uni0462" unicode="&#x462;" horiz-adv-x="1285" 
d="M310 863h397q160 0 270 -53.5t167 -149.5t57 -225q0 -96 -32 -175.5t-95 -138t-155 -90t-212 -31.5h-544v1456h193v-1299h351q107 0 173.5 39.5t97.5 103.5t31 137t-31 134t-97.5 97.5t-173.5 36.5h-397v158zM593 1255v-152h-637v152h637z" />
    <glyph glyph-name="uni0463" unicode="&#x463;" horiz-adv-x="1111" 
d="M291 746h325q132 0 222 -48t136 -131t46 -190q0 -105 -46 -190.5t-136 -136t-222 -50.5h-460v1558h185v-1406h275q80 0 128 31.5t69 81.5t21 105q0 53 -21 104.5t-69 86t-128 34.5h-325v151zM663 1234v-152h-700v152h700z" />
    <glyph glyph-name="uni0464" unicode="&#x464;" horiz-adv-x="1836" 
d="M1310 833v-152h-1007v152h1007zM1504 464h193q-15 -138 -79.5 -247t-181.5 -172.5t-292 -63.5q-128 0 -232.5 48t-179.5 136.5t-115.5 213t-40.5 277.5v145q0 153 40.5 277.5t117 213.5t184.5 137t243 48q165 0 279 -62t178 -171.5t79 -253.5h-193q-14 102 -52 175.5
t-108 113.5t-183 40q-96 0 -169.5 -37t-123 -105t-74.5 -163t-25 -211v-147q0 -86 14.5 -163.5t43.5 -142.5t73.5 -112.5t105.5 -73.5t138 -26q123 0 196 39t110.5 112t53.5 175zM377 1456v-1456h-193v1456h193z" />
    <glyph glyph-name="uni0465" unicode="&#x465;" horiz-adv-x="1529" 
d="M1154 616v-152h-881v152h881zM1011 132q66 0 122 27t92 74.5t41 108.5h175q-5 -96 -64.5 -178.5t-155 -133t-210.5 -50.5q-122 0 -213 43t-150.5 118t-89 172.5t-29.5 206.5v42q0 109 29.5 206.5t89.5 172.5t150.5 118t212.5 43q127 0 221.5 -51.5t149 -140t59.5 -200.5
h-175q-5 67 -37.5 121t-88 86.5t-129.5 32.5q-86 0 -143 -33.5t-90.5 -90t-48 -125t-14.5 -139.5v-42q0 -71 14 -140t47.5 -125t91 -89.5t143.5 -33.5zM339 1082v-1082h-185v1082h185z" />
    <glyph glyph-name="uni0466" unicode="&#x466;" horiz-adv-x="1235" 
d="M690 1300l-452 -1300h-198l525 1456h123zM1055 0l-445 1308l5 148h122l516 -1456h-198zM998 602v-163h-706v163h706zM736 551v-551h-189v551h189z" />
    <glyph glyph-name="uni0467" unicode="&#x467;" horiz-adv-x="1095" 
d="M511 765l-306 -765h-190l443 1082h141zM872 0l-313 765l-84 317h142l444 -1082h-189zM841 449v-152h-595v152h595zM632 411v-411h-184v411h184z" />
    <glyph glyph-name="uni0468" unicode="&#x468;" horiz-adv-x="1804" 
d="M859 602v-161h-547v161h547zM1219 1300l-452 -1300h-198l525 1456h123zM1584 0l-445 1308l5 148h122l516 -1456h-198zM1527 602v-163h-706v163h706zM1265 551v-551h-189v551h189zM395 1456v-1456h-193v1456h193z" />
    <glyph glyph-name="uni0469" unicode="&#x469;" horiz-adv-x="1548" 
d="M743 449v-152h-468v152h468zM958 765l-306 -765h-190l443 1082h141zM1319 0l-313 765l-84 317h142l444 -1082h-189zM1288 449v-152h-595v152h595zM1079 411v-411h-184v411h184zM374 1082v-1082h-185v1082h185z" />
    <glyph glyph-name="uni046A" unicode="&#x46a;" horiz-adv-x="1746" 
d="M340 0h-193v370q0 161 58 258t166.5 140t260.5 43h482q153 0 261.5 -43t166.5 -140t58 -258v-370h-193v370q0 110 -32 171.5t-97 86.5t-164 25h-482q-147 0 -219.5 -59t-72.5 -224v-370zM1285 1456v-158h-800v158h800zM817 688l446 768h219l-513 -846h-122zM499 1456
l449 -775l-34 -71h-121l-514 846h220zM973 781v-781h-192v781h192z" />
    <glyph glyph-name="uni046B" unicode="&#x46b;" horiz-adv-x="1506" 
d="M336 0h-185v164q0 161 53 257.5t153 139.5t239 43h314q139 0 238.5 -43t153 -139.5t53.5 -257.5v-164h-185v164q0 113 -28.5 175.5t-86 88t-145.5 25.5h-314q-88 0 -145.5 -25.5t-86 -88t-28.5 -175.5v-164zM1120 1083v-153h-690v153h690zM705 500l325 582h208l-395 -659
h-112zM488 1082l329 -587l-29 -72h-112l-396 659h208zM849 581v-581h-185v581h185z" />
    <glyph glyph-name="uni046C" unicode="&#x46c;" horiz-adv-x="2309" 
d="M1264 812v-151h-913v151h913zM376 1456v-1456h-193v1456h193zM903 0h-193v370q0 161 58 258t166.5 140t259.5 43h483q153 0 261.5 -43t166 -140t57.5 -258v-370h-192v370q0 110 -32 171.5t-97 86.5t-164 25h-483q-146 0 -218.5 -59t-72.5 -224v-370zM1848 1456v-158h-800
v158h800zM1380 688l446 768h219l-514 -846h-121zM1062 1456l449 -775l-34 -71h-121l-514 846h220zM1536 781v-781h-193v781h193z" />
    <glyph glyph-name="uni046D" unicode="&#x46d;" horiz-adv-x="2001" 
d="M1247 604v-151h-994v151h994zM341 1082v-1082h-185v1082h185zM832 0h-185v164q0 161 53 257.5t153 139.5t239 43h314q139 0 238.5 -43t153 -139.5t53.5 -257.5v-164h-185v164q0 113 -28.5 175.5t-86 88t-145.5 25.5h-314q-88 0 -145.5 -25.5t-86 -88t-28.5 -175.5v-164z
M1616 1083v-153h-690v153h690zM1201 500l325 582h208l-395 -659h-112zM984 1082l329 -587l-29 -72h-112l-396 659h208zM1345 581v-581h-185v581h185z" />
    <glyph glyph-name="uni046E" unicode="&#x46e;" horiz-adv-x="1060" 
d="M132 1456h306q104 0 191.5 -26.5t151.5 -77.5t99.5 -124t35.5 -165q0 -75 -35 -139.5t-100 -113t-156 -75.5t-203 -27h-145v115h141q111 0 180 31t100.5 86t31.5 127q0 65 -31 119t-95.5 86t-165.5 32h-306v152zM277 784h145q123 0 219 -25t162.5 -73t100.5 -118.5
t34 -161.5q0 -102 -36 -181t-100.5 -133.5t-152 -82.5t-191.5 -28h-53q-80 0 -114.5 -31.5t-34.5 -81.5q0 -53 28 -89.5t66 -59.5t68 -37l-75 -124q-61 26 -121 70t-100.5 106.5t-41.5 142.5q0 88 40.5 144.5t115 83.5t177.5 27h45q69 0 124 20t93 56.5t58 86t20 107.5
q0 68 -22 118.5t-64.5 84.5t-105 50.5t-143.5 16.5h-141v112zM393 1926l151 -170l151 170h160v-10l-254 -274h-114l-251 274v10h157z" />
    </font>
</defs>
</svg>
